<?xml version="1.0" standalone="no"?>
<!DOCTYPE svg PUBLIC "-//W3C//DTD SVG 1.1//EN" "http://www.w3.org/Graphics/SVG/1.1/DTD/svg11.dtd" >
<svg xmlns="http://www.w3.org/2000/svg">
<metadata>
This is a custom SVG webfont generated by Font Squirrel.
Copyright   : c2004 Copyleft by Yeah Noah All lefts reversed
Designer    : Yeah Noah
Foundry     : Yeah Noah
Foundry URL : httpmywebpagenetscapecomyeahnoahtypehtml
</metadata>
<defs>
<font id="webfontd8M49gV8" horiz-adv-x="348" >
<font-face units-per-em="2048" ascent="1638" descent="-410" />
<missing-glyph horiz-adv-x="665" />
<glyph unicode="&#xfb01;" horiz-adv-x="878" d="M43 1036v62h92v235q0 195 87 305.5t222 110.5q123 0 207 -95t84 -200h-61q0 80 -67.5 157t-162.5 77q-106 0 -176.5 -93.5t-70.5 -261.5v-1933h-62v1636h-92zM258 1036v62h262v-62h-262zM674 0v1098h61v-1098h-61z" />
<glyph unicode="&#xfb02;" horiz-adv-x="862" d="M43 1036v62h92v276q0 188 107.5 303t263.5 115q37 0 98 -8v-62q-39 8 -98 9q-131 0 -220 -97.5t-89 -259.5v-1974h-62v1636h-92zM258 1036v62h262v-62h-262zM666 0v1792h61v-1792h-61z" />
<glyph unicode="fb" horiz-adv-x="1619" d="M43 1036v62h92v276q0 188 107.5 303t263.5 115q133 0 221 -49v-1747q-10 0 -30.5 1t-30.5 3v1704q-70 27 -160 27q-131 0 -220 -97.5t-89 -259.5v-1974h-62v1636h-92zM258 1036v62h262v-62h-262zM788 -6v61h35q299 0 466 146.5t167 349.5t-167 350.5t-468 147.5h-33v61 h33q330 0 513.5 -165t183.5 -394q0 -227 -183.5 -392t-511.5 -165h-35z" />
<glyph unicode="fh" horiz-adv-x="1642" d="M43 1036v62h92v276q0 188 107.5 303t263.5 115q133 0 221 -49v-1743h-61v1704q-70 27 -160 27q-131 0 -220 -97.5t-89 -259.5v-1974h-62v1636h-92zM258 1036v62h262v-62h-262zM788 977v70q133 72 281 71q143 0 259 -69.5t165 -204.5q27 -68 27 -144v-700h-62v696 q0 66 -22 125q-43 117 -143.5 176.5t-225.5 59.5q-152 0 -279 -80z" />
<glyph unicode="fj" horiz-adv-x="878" d="M43 1036v62h92v235q0 195 88 305.5t223 110.5q123 0 208 -95t85 -200h-61q0 80 -68.5 157t-163.5 77q-106 0 -177.5 -93.5t-71.5 -261.5v-1638h-62v1341h-92zM188 -463l54 29q20 -41 77.5 -73t108.5 -32q106 0 178 93.5t72 261.5v1282h61v-1282q0 -195 -88 -305.5 t-223 -110.5q-68 0 -140.5 41t-99.5 96zM258 1036v62h262v-62h-262z" />
<glyph unicode="fk" horiz-adv-x="1697" d="M43 1036v62h92v276q0 188 107.5 303t263.5 115q133 0 221 -49v-1743h-61v1704q-70 27 -160 27q-131 0 -220 -97.5t-89 -259.5v-1974h-62v1636h-92zM258 1036v62h262v-62h-262zM788 475v78l771 567l36 -49l-684 -506l684 -538l-36 -50l-699 551z" />
<glyph horiz-adv-x="1024" d="M0 -600v2490h1024v-2490h-1024z" />
<glyph horiz-adv-x="1024" d="M0 -600v2490h1024v-2490h-1024z" />
<glyph unicode=" "  horiz-adv-x="665" />
<glyph unicode="&#x09;" horiz-adv-x="665" />
<glyph unicode="&#xa0;" horiz-adv-x="665" />
<glyph unicode="!" horiz-adv-x="376" d="M127 0v123h123v-123h-123zM158 336v1098h61v-1098h-61z" />
<glyph unicode="&#x22;" horiz-adv-x="499" d="M127 1147v287h61v-287h-61zM311 1147v287h62v-287h-62z" />
<glyph unicode="#" horiz-adv-x="1095" d="M57 389l11 62h628l66 440h61l-65 -440h217l-10 -62h-215l-60 -389h-61l57 389h-352l-60 -389h-61l57 389h-213zM141 952l11 62h213l63 420h64l-64 -420h352l64 420h63l-63 -420h215l-10 -62h-631l-68 -440h-61l67 440h-215z" />
<glyph unicode="$" horiz-adv-x="1036" d="M102 1065q0 162 108.5 272.5t276.5 124.5v187h62v-185q127 -4 227.5 -66.5t149.5 -176.5l-58 -25q-88 197 -319 207v-600l-62 22v576q-141 -14 -232 -107.5t-91 -228.5q0 -61 31.5 -113.5t91 -91.5t114 -64.5t127.5 -50.5q82 -29 143.5 -57.5t126 -73.5t100.5 -107.5 t36 -137.5q0 -162 -109.5 -272.5t-275.5 -125.5v-186h-62v184q-129 4 -229 66.5t-147 177.5l57 25q41 -96 126 -149.5t193 -57.5v600l62 -23v-575q141 12 232 106t91 230q0 61 -31.5 113.5t-91 91t-113.5 64.5t-128 50q-82 29 -143.5 57.5t-126 73.5t-100.5 107.5t-36 138.5 z" />
<glyph unicode="%" horiz-adv-x="1038" d="M123 14l739 1434l53 -29l-739 -1433zM123 1275.5q0 61.5 39 108t98 56.5v-62q-76 -25 -76 -102q0 -37 20.5 -64.5t55.5 -37.5v-64q-59 10 -98 57t-39 108.5zM322 1110v64q33 10 54 37.5t21 64.5t-21.5 64.5t-53.5 37.5v62q59 -10 98 -56.5t39 -108t-39 -108.5t-98 -57z M580 155.5q0 61.5 38.5 107.5t98.5 56v-61q-76 -25 -76 -102q0 -37 20.5 -65t55.5 -38v-61q-59 10 -98 56t-39 107.5zM778 -8v61q33 10 54.5 38t21.5 65t-21.5 64.5t-54.5 37.5v61q59 -10 98 -56t39 -107.5t-39 -107.5t-98 -56z" />
<glyph unicode="&#x26;" horiz-adv-x="997" d="M113 397q0 129 88 231.5t235 147.5q-102 41 -158.5 123t-56.5 191q0 162 117 258t293 96q27 0 71 -4l-4 -62q-45 4 -67 4q-150 0 -249 -78.5t-99 -213.5q0 -117 81.5 -196t221.5 -91v-62q-182 -12 -297 -110.5t-115 -233.5q0 -156 143.5 -248t362.5 -92h4v-61h-4 q-246 0 -406.5 109.5t-160.5 291.5zM647 741v62h98v96h62v-96h98v-62h-98v-739q-41 -4 -62 -4v743h-98z" />
<glyph unicode="'" horiz-adv-x="266" d="M102 1147v287h62v-287h-62z" />
<glyph unicode="(" horiz-adv-x="538" d="M113 717q0 256 96 499.5t285 442.5l45 -41q-180 -190 -272.5 -423.5t-92.5 -477.5q0 -246 92 -478.5t273 -422.5l-45 -41q-188 199 -284.5 442.5t-96.5 499.5z" />
<glyph unicode=")" horiz-adv-x="538" d="M0 -184q180 190 272.5 422.5t92.5 478.5q0 244 -92.5 477t-272.5 424l45 41q188 -199 284.5 -442.5t96.5 -499.5t-96.5 -500t-284.5 -442z" />
<glyph unicode="*" horiz-adv-x="806" d="M102 1139l21 57l250 -82v266h61v-266l254 82l17 -57l-254 -82l157 -213l-49 -37l-158 213l-153 -211l-49 37l153 211z" />
<glyph unicode="+" horiz-adv-x="942" d="M102 602v62h338v337h62v-337h338v-62h-338v-338h-62v338h-338z" />
<glyph unicode="," horiz-adv-x="376" d="M127 0v123h123v-174q0 -145 -96 -180l-21 57q55 18 55 123v51h-61z" />
<glyph unicode="-" horiz-adv-x="737" d="M102 602v62h533v-62h-533z" />
<glyph unicode="." horiz-adv-x="376" d="M127 0v123h123v-123h-123z" />
<glyph unicode="/" horiz-adv-x="931" d="M41 -70l793 1698l57 -24l-793 -1698z" />
<glyph unicode="0" horiz-adv-x="1097" d="M123 716.5q0 186.5 42 347.5t134 273.5t219 124.5v-61q-158 -20 -246 -220t-88 -464q0 -266 88 -466t246 -218v-62q-127 12 -219 124t-134 273.5t-42 348zM580 -29v62q106 12 184 115.5t113.5 251t35.5 317.5t-35.5 316.5t-113.5 249.5t-184 118v61q125 -12 217 -124.5 t135 -274.5t43 -346q0 -186 -43 -347t-135 -274t-217 -125z" />
<glyph unicode="1" horiz-adv-x="1077" d="M201 928l331 415v-98l-282 -354zM594 0v1421l61 78v-1499h-61z" />
<glyph unicode="2" horiz-adv-x="1077" d="M74 0l53 61h844v-61h-897zM109 1223q121 242 395 241q170 0 299 -103.5t129 -281.5q0 -84 -39 -173t-79 -141t-114 -136l-442 -506h-78l482 555q63 74 99 120t72.5 123.5t36.5 147.5q0 156 -111.5 245t-254.5 89q-236 0 -340 -205z" />
<glyph unicode="3" horiz-adv-x="1077" d="M115 -2l10 61q61 -10 139 -10q258 0 435.5 106.5t177.5 276.5q0 104 -81 194.5t-212 135.5q-137 47 -359 47l357 502h75l-315 -445q147 -6 262 -45q139 -47 236.5 -154.5t97.5 -234.5q0 -147 -108.5 -251.5t-256 -148.5t-309.5 -44q-88 0 -149 10zM166 1372v62h577 l-43 -62h-534z" />
<glyph unicode="4" horiz-adv-x="1077" d="M88 264l590 1030v-125l-483 -843h483v-62h-590zM739 0v1401l62 108v-1183h172v-62h-172v-264h-62z" />
<glyph unicode="5" horiz-adv-x="1077" d="M113 -2l10 61q61 -10 139 -10q258 0 435 106.5t177 276.5q0 104 -80.5 194.5t-211.5 135.5q-135 45 -273 45q-49 0 -125 -4v508h62v-445q37 2 63 2q147 0 293 -47q139 -47 236.5 -154.5t97.5 -234.5q0 -147 -108.5 -251.5t-256 -148.5t-309.5 -44q-88 0 -149 10z M184 1372v62h559v-62h-559z" />
<glyph unicode="6" horiz-adv-x="1077" d="M123 395v443q0 94 14.5 177t52 162.5t96 137t151.5 92.5t212 35q35 0 92 -4v-62q-57 4 -90 4q-467 0 -467 -542v-224q51 88 139.5 142.5t192.5 62.5v-61q-139 -12 -235.5 -116.5t-96.5 -246.5q0 -143 96.5 -247.5t235.5 -116.5v-60q-166 12 -279.5 134t-113.5 290z M578 -29v60q141 10 238 115.5t97 248.5q0 141 -97 247t-238 116v61q166 -10 281.5 -133t115.5 -291q0 -170 -115.5 -292t-281.5 -132z" />
<glyph unicode="7" horiz-adv-x="1077" d="M123 1372v62h838l-21 -62h-817zM416 4l438 1307h66l-445 -1321z" />
<glyph unicode="8" horiz-adv-x="1077" d="M113 395q0 133 75.5 241.5t196.5 156.5q-90 43 -144.5 129t-54.5 188q0 137 93.5 238.5t228.5 111.5v-61q-111 -12 -185.5 -95t-74.5 -194q0 -113 75.5 -196t184.5 -93v-63q-139 -10 -236.5 -114.5t-97.5 -248.5q0 -141 96.5 -246.5t237.5 -117.5v-62q-166 10 -280.5 134 t-114.5 292zM569 -31v62q141 12 237.5 117.5t96.5 246.5q0 143 -97 248t-237 115v63q109 10 184.5 93t75.5 196q0 111 -74.5 193.5t-185.5 95.5v61q135 -10 228.5 -111.5t93.5 -238.5q0 -102 -54.5 -188t-144.5 -129q121 -47 197 -156t76 -242q0 -168 -115 -292t-281 -134z " />
<glyph unicode="9" horiz-adv-x="1077" d="M102 1038q0 170 116 293t282 133v-61q-141 -10 -238.5 -115.5t-97.5 -249.5q0 -141 97 -246.5t239 -115.5v-62q-166 10 -282 133t-116 291zM336 -4v61q57 -4 90 -4q467 0 467 543v223q-51 -88 -139 -142t-193 -63v62q139 12 235.5 116.5t96.5 245.5q0 143 -96.5 248 t-235.5 117v61q166 -12 279.5 -135t113.5 -291v-442q0 -94 -14 -177t-52 -163t-96.5 -137.5t-151.5 -92t-212 -34.5q-35 0 -92 4z" />
<glyph unicode=":" horiz-adv-x="376" d="M127 0v123h123v-123h-123zM127 975v123h123v-123h-123z" />
<glyph unicode=";" horiz-adv-x="376" d="M127 0v123h123v-174q0 -145 -96 -180l-21 57q55 18 55 123v51h-61zM127 975v123h123v-123h-123z" />
<glyph unicode="&#x3c;" horiz-adv-x="1126" d="M102 590l902 348l20 -57l-752 -291l752 -291l-20 -57z" />
<glyph unicode="=" horiz-adv-x="942" d="M102 506v61h738v-61h-738zM102 698v62h738v-62h-738z" />
<glyph unicode="&#x3e;" horiz-adv-x="1126" d="M102 299l752 291l-752 291l21 57l901 -348l-901 -348z" />
<glyph unicode="?" horiz-adv-x="1028" d="M104 1227q121 238 392 237q170 0 300 -102t130 -281q0 -129 -61.5 -207.5t-180.5 -144.5q-84 -47 -125 -98t-41 -129v-166h-61v166q0 172 198 280q100 55 154.5 125t54.5 174q0 150 -111.5 236t-256.5 86q-238 0 -338 -205zM426 0v123h123v-123h-123z" />
<glyph unicode="@" horiz-adv-x="1720" d="M113 717q0 309 219 528t528 219t528.5 -219t219.5 -528q0 -154 -88 -271.5t-244 -117.5q-63 0 -129 47t-66 112v351q0 106 -58 174.5t-149 68.5q-135 0 -229 -94l-45 45q111 111 274 111q117 0 193 -83t76 -222v-351q0 -33 41 -65.5t92 -32.5q127 0 198.5 99.5 t71.5 228.5q0 285 -200.5 485.5t-485.5 200.5t-485.5 -201t-200.5 -485.5t200.5 -485t485.5 -200.5q152 0 318 78l24 -58q-168 -82 -342 -82q-309 0 -528 219.5t-219 528.5zM522 621q0 135 96.5 217t219.5 82q98 0 182 -46v-73q-84 57 -182.5 57t-176 -65.5t-77.5 -172 t77.5 -173t176.5 -66.5q106 0 182 49v-72q-80 -39 -182 -39q-121 0 -218.5 82.5t-97.5 219.5z" />
<glyph unicode="A" horiz-adv-x="1298" d="M100 10l484 1282l32 -86l-458 -1216zM373 387l22 62h572l-351 931l33 88l549 -1458l-57 -20l-150 397h-618z" />
<glyph unicode="B" horiz-adv-x="1077" d="M143 4v1430q20 0 62 4v-1438q-25 0 -62 4zM266 -2v61h35q287 0 449.5 89.5t162.5 244.5q0 158 -163.5 247t-450.5 89h-33v62h56q233 0 351 81.5t118 212.5q0 133 -123 213t-367 80h-35v62h35q274 0 412.5 -97.5t138.5 -257.5q0 -111 -69.5 -195.5t-207.5 -125.5 q190 -39 295 -136.5t105 -234.5q0 -182 -179.5 -288.5t-494.5 -106.5h-35z" />
<glyph unicode="C" horiz-adv-x="1060" d="M113 717q0 139 44 267t128 231.5t220 165t304 61.5q82 0 149 -6l-4 -62q-68 6 -145 6q-154 0 -277.5 -56t-199.5 -151.5t-117 -212t-41 -243.5t41 -244t117 -211t198.5 -150.5t276.5 -56.5q80 0 147 6l4 -61q-68 -6 -151 -6q-168 0 -303 61.5t-219 165t-128 230.5 t-44 266z" />
<glyph unicode="D" horiz-adv-x="1128" d="M143 0v1434q8 0 29 2t33 2v-1442q-12 0 -33 2t-29 2zM266 -6v61h56q154 0 276.5 56.5t198 150.5t116.5 211t41 244t-41 243.5t-116.5 212t-199.5 151.5t-275 56q-35 0 -56 -2v62q20 2 56 2q221 0 382.5 -106.5t236.5 -268.5t75 -350q0 -139 -44 -266t-128 -230.5 t-219.5 -165t-302.5 -61.5h-56z" />
<glyph unicode="E" horiz-adv-x="1067" d="M143 0v1434h62v-1434h-62zM266 0v61h688v-61h-688zM266 770v61h553v-61h-553zM266 1372v62h688v-62h-688z" />
<glyph unicode="F" horiz-adv-x="1067" d="M143 0v1434h62v-1434h-62zM266 770v61h553v-61h-553zM266 1372v62h688v-62h-688z" />
<glyph unicode="G" horiz-adv-x="1120" d="M113 717q0 188 74.5 350t236.5 268.5t383 106.5q72 0 178 -8v-64q-86 10 -178 10q-152 0 -275.5 -56t-199.5 -151.5t-117 -212t-41 -243.5t41 -244t117 -211t198.5 -150.5t276.5 -56.5h55v-61h-55q-168 0 -303 61.5t-219 165t-128 230.5t-44 266zM924 -4v635h61v-631 q-20 0 -61 -4z" />
<glyph unicode="H" horiz-adv-x="1118" d="M143 0v1434h62v-1434h-62zM266 770v61h647v603h62v-1434h-62v770h-647z" />
<glyph unicode="I" d="M143 0v1434h62v-1434h-62z" />
<glyph unicode="J" horiz-adv-x="940" d="M92 119l43 47q135 -125 260 -125q123 0 210 79t118 195q20 74 20 160v959h62v-977q0 -203 -116 -340t-294 -137q-164 0 -303 139z" />
<glyph unicode="K" horiz-adv-x="1179" d="M143 0v1434h62v-1434h-62zM266 657v84l768 715l41 -45zM365 666l45 41l667 -687l-45 -40z" />
<glyph unicode="L" horiz-adv-x="1009" d="M143 0v1434h62v-1434h-62zM266 0v61h631v-61h-631z" />
<glyph unicode="M" horiz-adv-x="1343" d="M143 0v1223l62 -115v-1108h-62zM143 1354v129l529 -989l405 757v-129l-405 -760zM1139 0v1366l61 117v-1483h-61z" />
<glyph unicode="N" horiz-adv-x="1140" d="M143 0v1251l62 -104v-1147h-62zM143 1372v121l854 -1430v-122zM936 289v1145h61v-1248z" />
<glyph unicode="O" horiz-adv-x="1675" d="M102 717q0 295 205 508t500 225v-61q-270 -12 -456.5 -207t-186.5 -465.5t186.5 -466t456.5 -207.5v-61q-295 12 -500 226t-205 509zM868 -18v61q270 12 456.5 207.5t186.5 466t-186 465t-457 207.5v61q295 -12 500 -225t205 -508t-205 -509t-500 -226z" />
<glyph unicode="P" horiz-adv-x="1097" d="M143 0v1434q37 4 62 4v-1438h-62zM266 483v62h35q299 0 466 123t167 292.5t-167 293.5t-466 124h-35v62h35q328 0 511 -142.5t183 -337t-183 -336t-511 -141.5h-35z" />
<glyph unicode="Q" horiz-adv-x="1675" d="M102 717q0 295 205 508t500 225v-61q-270 -12 -456.5 -207t-186.5 -465.5t186.5 -466t456.5 -207.5v-61q-295 12 -500 226t-205 509zM868 -18v61q240 8 422 174l-192 195l45 45l192 -195q176 197 176 455q0 270 -186 464.5t-457 207.5v61q295 -12 500 -225t205 -508 q0 -287 -195 -498l195 -192l-45 -45l-195 192q-203 -184 -465 -192z" />
<glyph unicode="R" horiz-adv-x="1118" d="M143 0v1434q20 0 62 4v-1438h-62zM266 483v62h35q299 0 466 123t167 292.5t-167 293.5t-466 124h-35v62h35q328 0 511 -142.5t183 -336.5q0 -135 -93 -252t-267 -177l391 -514l-49 -36l-406 532q-117 -31 -270 -31h-35z" />
<glyph unicode="S" horiz-adv-x="1056" d="M113 1065q0 164 112.5 272.5t282.5 118.5v-61q-145 -10 -239.5 -101.5t-94.5 -228.5q0 -61 32 -113.5t91 -91.5t113.5 -64.5t128.5 -50.5q82 -29 143 -57.5t125.5 -73.5t100.5 -107.5t36 -137.5q0 -164 -112.5 -273.5t-282.5 -120.5v62q145 10 239.5 102t94.5 230 q0 61 -32 113.5t-91.5 91t-113.5 64.5t-128 50q-82 29 -143.5 57.5t-126 73.5t-100 107.5t-35.5 138.5zM121 217l57 25q84 -190 309 -205v-62q-270 15 -366 242zM569 1395v61q125 -6 222.5 -66.5t144.5 -172.5l-57 -25q-85 189 -310 203z" />
<glyph unicode="T" horiz-adv-x="1159" d="M102 1372v62h955v-62h-955zM549 0v1311h61v-1311h-61z" />
<glyph unicode="U" horiz-adv-x="1142" d="M135 395v1039h62v-1039q0 -147 99 -245.5t245 -108.5v-61q-170 10 -288 125.5t-118 289.5zM602 -20v61q143 10 243.5 108.5t100.5 245.5v1039h62v-1039q0 -174 -118 -289.5t-288 -125.5z" />
<glyph unicode="V" horiz-adv-x="1298" d="M100 1423l58 19l524 -1411l-33 -88zM682 207l459 1235l57 -19l-483 -1304z" />
<glyph unicode="W" horiz-adv-x="1583" d="M102 1425l58 17l407 -1395l-30 -108zM567 258l162 553l31 -106l-162 -551zM612 1425l58 17l121 -418l122 418l58 -17l-150 -507l256 -871l-30 -108zM1077 258l346 1184l58 -17l-373 -1271z" />
<glyph unicode="X" horiz-adv-x="1142" d="M102 16l885 1434l53 -33l-884 -1433zM102 1417l54 33l379 -614l-37 -60zM608 598l37 59l395 -641l-53 -32z" />
<glyph unicode="Y" horiz-adv-x="1142" d="M102 1417l54 33l446 -723v-727h-61v707zM608 836l379 614l53 -33l-395 -641z" />
<glyph unicode="Z" horiz-adv-x="1126" d="M113 0l831 1434h70l-832 -1434h-69zM119 1372v62h753l-36 -62h-717zM254 0l37 61h717v-61h-754z" />
<glyph unicode="[" horiz-adv-x="491" d="M143 -225v1884h349v-62h-287v-1761h287v-61h-349z" />
<glyph unicode="\" horiz-adv-x="931" d="M41 1604l57 24l793 -1698l-57 -24z" />
<glyph unicode="]" horiz-adv-x="491" d="M0 -164h287v1761h-287v62h348v-1884h-348v61z" />
<glyph unicode="^" horiz-adv-x="665" d="M102 1137l232 297l229 -297l-49 -37l-180 231l-182 -231z" />
<glyph unicode="_" horiz-adv-x="1046" d="M0 0v61h1047v-61h-1047z" />
<glyph unicode="`" horiz-adv-x="591" d="M123 1468l37 50l309 -224l-37 -49z" />
<glyph unicode="a" horiz-adv-x="1089" d="M113 383q0 178 127 288.5t307 110.5q164 0 297 -92v-74q-123 104 -297 105q-156 0 -264.5 -93t-108.5 -245t109.5 -247t263.5 -95q174 0 297 94v-76q-123 -80 -297 -79q-178 0 -306 112.5t-128 290.5zM221 967q158 152 377 151q63 0 124.5 -21.5t118 -67.5t91.5 -131 t35 -200v-698h-62v698q0 186 -93 272.5t-214 86.5q-197 0 -332 -131z" />
<glyph unicode="b" horiz-adv-x="1089" d="M135 0v1829h62v-1833q-25 0 -62 4zM258 -6v61h35q299 0 466 147.5t167 350.5t-167 351.5t-468 148.5h-33v61h33q330 0 513 -166t183 -395q0 -227 -183 -393t-511 -166h-35z" />
<glyph unicode="c" horiz-adv-x="1030" d="M102 548.5q0 229.5 183.5 397.5t511.5 168q63 0 131 -6l-4 -61q-68 6 -127 6q-299 0 -466 -150.5t-167 -353.5t167 -352.5t466 -149.5q59 0 127 6l4 -61q-68 -6 -131 -6q-328 0 -511.5 166.5t-183.5 396z" />
<glyph unicode="d" horiz-adv-x="1089" d="M102 553q0 229 183.5 395t513.5 166h32v-61h-32q-301 0 -468 -148.5t-167 -351.5t167 -350.5t466 -147.5h34v-61h-34q-328 0 -511.5 166t-183.5 393zM893 -4v1833h61v-1829q-41 -4 -61 -4z" />
<glyph unicode="e" horiz-adv-x="1150" d="M102 553q0 152 49.5 267.5t126 177t156.5 91t156 29.5q213 0 336 -145.5t123 -370.5h-822q0 31 6 62h750q0 145 -106.5 269t-286.5 124q-70 0 -140.5 -29t-137 -85t-107.5 -157.5t-41 -232.5q0 -201 167 -350.5t470 -149.5q39 0 125 8v-61q-90 -8 -131 -8 q-324 0 -508.5 166t-184.5 395z" />
<glyph unicode="f" horiz-adv-x="530" d="M43 1036v62h92v235q0 188 107.5 302t263.5 114q98 0 164.5 -30.5t140.5 -98.5l-41 -45q-68 61 -124 87t-140 26q-131 0 -220 -96.5t-89 -258.5v-1933h-62v1636h-92zM258 1036v62h262v-62h-262z" />
<glyph unicode="g" horiz-adv-x="1089" d="M102 553q0 227 183.5 393t511.5 166h34v-61h-34q-299 0 -466 -147.5t-167 -350.5t167 -351.5t468 -148.5h32v-61h-32q-330 0 -513.5 166t-183.5 395zM244 -461l41 45q127 -123 262 -123q152 0 249 124t97 292v1233q41 -4 61 -4v-1229q0 -193 -113.5 -335t-293.5 -142 q-160 0 -303 139z" />
<glyph unicode="h" horiz-adv-x="1112" d="M135 0v1829h62v-1829h-62zM258 977v70q133 72 281 71q143 0 258.5 -69.5t165.5 -204.5q27 -68 26 -144v-700h-61v696q0 66 -23 125q-43 117 -143 176.5t-225 59.5q-152 0 -279 -80z" />
<glyph unicode="i" d="M123 1331v103h102v-103h-102zM143 0v1098h62v-1098h-62z" />
<glyph unicode="j" d="M-250 -475l53 29q53 -92 148 -93q82 0 137 71t55 194v1372h62v-1372q0 -150 -73 -238t-181 -88q-131 0 -201 125zM123 1333v101h102v-101h-102z" />
<glyph unicode="k" horiz-adv-x="1167" d="M135 0v1829h62v-1829h-62zM258 475v78l770 567l37 -49zM381 487l51 39l633 -499l-37 -50z" />
<glyph unicode="l" horiz-adv-x="331" d="M135 0v1829h62v-1829h-62z" />
<glyph unicode="m" horiz-adv-x="1703" d="M135 0v1098h62v-1098h-62zM258 979v72q113 68 252 67q162 0 270.5 -115.5t108.5 -297.5v-705h-62v705q0 131 -81.5 241.5t-235.5 110.5q-137 0 -252 -78zM893 950q102 168 309 168q164 0 271.5 -113.5t107.5 -306.5v-698h-61v698q0 29 -6.5 68t-28 92t-54 96t-93 73 t-136.5 30q-193 0 -276 -183q-10 31 -33 76z" />
<glyph unicode="n" horiz-adv-x="1114" d="M135 0v1098h62v-1098h-62zM258 977v70q131 72 285 71q143 0 259 -71.5t165 -202.5q25 -66 24 -144v-700h-61v700q0 164 -118 260.5t-269 96.5q-158 0 -285 -80z" />
<glyph unicode="o" horiz-adv-x="1343" d="M102 549q0 227 157 391t382 176v-61q-201 -12 -339 -157.5t-138 -348.5t138 -349.5t339 -158.5v-59q-225 12 -382 176t-157 391zM702 -18v59q201 12 339.5 158.5t138.5 349.5t-138.5 348t-339.5 158v61q225 -12 382 -176t157 -391t-157 -391t-382 -176z" />
<glyph unicode="p" horiz-adv-x="1089" d="M135 -600v1706q20 0 62 4v-1710h-62zM258 -8v61h33q301 0 468 148.5t167 351.5t-167 350.5t-466 147.5h-35v61h35q328 0 511 -166t183 -393q0 -229 -183 -395t-513 -166h-33z" />
<glyph unicode="q" horiz-adv-x="1089" d="M102 553q0 227 183.5 393t511.5 166h34v-61h-34q-299 0 -466 -147.5t-167 -350.5t167 -351.5t468 -148.5h32v-61h-32q-330 0 -513.5 166t-183.5 395zM893 -600v1710q41 -4 61 -4v-1706h-61z" />
<glyph unicode="r" horiz-adv-x="614" d="M135 0v1098h62v-1098h-62zM258 977v70q131 72 285 71v-61q-158 0 -285 -80z" />
<glyph unicode="s" horiz-adv-x="950" d="M102 795q0 135 127 226t334 91q121 0 225 -43l-24 -57q-100 39 -201 39q-180 0 -289.5 -73t-109.5 -183q0 -162 315 -215q176 -29 272.5 -100.5t96.5 -176.5q0 -135 -127 -226t-334 -91q-121 0 -225 43l24 57q100 -39 201 -39q180 0 289.5 73t109.5 183q0 162 -315 215 q-176 29 -272.5 101t-96.5 176z" />
<glyph unicode="t" horiz-adv-x="606" d="M43 1036v62h92v356h62v-1069q0 -160 87 -243t226 -83q29 0 47 2l8 -61q-18 -2 -55 -2q-166 0 -270.5 98.5t-104.5 288.5v651h-92zM258 1036v62h262v-62h-262z" />
<glyph unicode="u" horiz-adv-x="1101" d="M123 395v703h61v-703q0 -147 96.5 -245.5t239.5 -108.5v-61q-168 10 -282.5 125.5t-114.5 289.5zM582 -20v61q143 10 239.5 108.5t96.5 245.5v703h61v-703q0 -174 -114.5 -289.5t-282.5 -125.5z" />
<glyph unicode="v" horiz-adv-x="1077" d="M102 1087l58 21l411 -1065l-32 -84zM571 211l347 897l57 -21l-371 -960z" />
<glyph unicode="w" horiz-adv-x="1593" d="M102 1087l58 21l411 -1065l-32 -84zM571 211l160 414l33 -84l-160 -414zM618 1087l58 21l121 -313l121 313l57 -21l-146 -376l258 -668l-32 -84zM1087 211l347 897l57 -21l-371 -960z" />
<glyph unicode="x" horiz-adv-x="1134" d="M102 18l881 1098l49 -37l-880 -1097zM102 1079l50 37l376 -469l-39 -49zM606 451l39 49l387 -482l-49 -36z" />
<glyph unicode="y" horiz-adv-x="1110" d="M123 381v717h61v-721q0 -160 115 -258.5t268.5 -98.5t284.5 107v-80q-131 -88 -283 -88q-168 0 -307 113.5t-139 308.5zM264 -461l41 45q127 -123 262 -123q152 0 249 124t97 292v1221h62v-1221q0 -193 -113.5 -335t-294.5 -142q-160 0 -303 139z" />
<glyph unicode="z" horiz-adv-x="1093" d="M94 0l826 1098h79l-825 -1098h-80zM102 1036v62h740l-47 -62h-693zM252 0l47 61h692v-61h-739z" />
<glyph unicode="{" horiz-adv-x="512" d="M96 692v49q55 12 112.5 60.5t57.5 103.5q0 74 -30.5 244t-30.5 254q0 102 81 179t226 77v-62q-117 0 -181.5 -58t-64.5 -136q0 -66 31 -238t31 -260q0 -115 -131 -188q131 -74 131 -189q0 -90 -31 -262t-31 -235q0 -78 64.5 -136.5t181.5 -58.5v-61q-145 0 -226 76.5 t-81 179.5q0 84 30.5 254t30.5 243q0 55 -57.5 103.5t-112.5 60.5z" />
<glyph unicode="|" horiz-adv-x="376" d="M158 -246v2075h61v-2075h-61z" />
<glyph unicode="}" horiz-adv-x="512" d="M0 -164q117 0 181.5 58.5t64.5 136.5q0 63 -31 235t-31 262q0 115 131 189q-131 74 -131 188q0 88 31 260t31 238q0 78 -64.5 136t-181.5 58v62q145 0 226 -77t81 -179q0 -84 -30.5 -254t-30.5 -244q0 -55 57 -103t113 -61v-49q-55 -12 -112.5 -60t-57.5 -104 q0 -74 30.5 -243.5t30.5 -253.5q0 -102 -81 -179t-226 -77v61z" />
<glyph unicode="~" horiz-adv-x="1046" d="M102 616q98 125 228 125q100 0 211 -82q90 -72 178 -71q96 0 176 100l49 -37q-98 -125 -225 -125q-102 0 -215 84q-96 70 -174 70q-98 0 -178 -100z" />
<glyph unicode="&#xa1;" horiz-adv-x="376" d="M127 975v123h123v-123h-123zM158 -336v1098h61v-1098h-61z" />
<glyph unicode="&#xa2;" horiz-adv-x="1048" d="M102 548.5q0 188.5 127 342t361 203.5v188h61v-178q76 10 146 10q63 0 131 -6l-4 -61q-68 6 -127 6q-299 0 -466 -150.5t-167 -353.5t167 -352.5t466 -149.5q59 0 127 6l4 -61q-68 -6 -131 -6q-70 0 -146 10v-184h-61v194q-233 49 -360.5 201.5t-127.5 341z" />
<glyph unicode="&#xa3;" horiz-adv-x="1009" d="M41 707v61h410v-61h-410zM68 61q61 14 122.5 102.5t61.5 188.5q0 84 -51 293h65q47 -188 47 -293q0 -119 -69 -217q23 10 59 10q106 0 215 -51q106 -47 191 -47q117 0 188 70l41 -45q-92 -86 -229 -86q-96 0 -215 51q-109 47 -191 47q-41 0 -123 -43q-70 -37 -102 -41z M150 975q0 205 142 332t413 127v-62q-240 0 -367 -110.5t-127 -286.5q0 -74 12 -146h-61q-12 72 -12 146z" />
<glyph unicode="&#xa5;" horiz-adv-x="1142" d="M102 1417l54 33l415 -674l416 674l53 -33l-438 -710v-52h-61v52zM244 352v62h655v-62h-655zM244 532v62h655v-62h-655zM541 0v291h61v-291h-61z" />
<glyph unicode="&#xa6;" horiz-adv-x="471" d="M205 -246v901h61v-901h-61zM205 928v901h61v-901h-61z" />
<glyph unicode="&#xa7;" horiz-adv-x="1050" d="M123 653q0 135 149 228l76 -27q-76 -31 -120 -85t-44 -116q0 -98 85 -176t220 -96q53 -8 78 -10q66 -6 135 -33q168 -63 168 -213q0 -125 -118.5 -213t-321.5 -88q-80 0 -162 16l8 62q82 -16 154 -17q174 0 276.5 71t102.5 169q0 70 -68.5 120t-179.5 64l-84 10 q-164 20 -259 119.5t-95 214.5zM180 1133q0 125 119 213t322 88q80 0 161 -17l-8 -61q-82 16 -153 16q-174 0 -276.5 -70.5t-102.5 -168.5q0 -150 245 -185l80 -10q166 -23 263.5 -122t97.5 -214q0 -139 -148 -227l-73 26q74 29 116.5 84.5t42.5 116.5q0 96 -85 175t-216 97 l-78 11q-80 10 -139 33q-168 63 -168 215z" />
<glyph unicode="&#xa8;" horiz-adv-x="665" d="M143 1331v103h103v-103h-103zM420 1331v103h102v-103h-102z" />
<glyph unicode="&#xa9;" horiz-adv-x="1720" d="M113 717q0 301 208.5 517t507.5 228v-61q-274 -12 -464.5 -210t-190.5 -474.5t190.5 -475t464.5 -210.5v-60q-299 12 -507.5 228.5t-208.5 517.5zM494 717q0 166 131 285.5t368 119.5q63 0 94 -4l-8 -61q-31 4 -86 4q-207 0 -322.5 -102.5t-115.5 -241.5t114.5 -240.5 t321.5 -101.5q55 0 88 4l8 -62q-33 -4 -96 -4q-236 0 -366.5 120t-130.5 284zM891 -29v60q274 12 464.5 210.5t190.5 475t-190.5 474.5t-464.5 210v61q299 -12 508 -228t209 -517t-209 -517.5t-508 -228.5z" />
<glyph unicode="&#xab;" horiz-adv-x="854" d="M102 553l347 270l36 -49l-280 -221l280 -219l-36 -49zM369 553l346 270l37 -49l-281 -221l281 -219l-37 -49z" />
<glyph unicode="&#xad;" horiz-adv-x="737" d="M102 602v62h533v-62h-533z" />
<glyph unicode="&#xae;" horiz-adv-x="1024" d="M123 1075.5q0 153.5 103.5 265t254.5 121.5v-61q-127 -10 -212 -103.5t-85 -222.5t85 -222t212 -105v-62q-152 12 -255 124t-103 265.5zM395 891v289h62v-99q61 0 96 23.5t35 54.5q0 33 -35 57.5t-96 24.5h-62v62h60q92 0 143 -42t51 -102q0 -84 -88 -121l98 -129 l-49 -37l-114 150q-12 -2 -39 -2v-129h-62zM543 686v62q125 12 211 105t86 222t-86 222.5t-211 103.5v61q152 -10 255 -121.5t103 -265t-103 -265.5t-255 -124z" />
<glyph unicode="&#xaf;" horiz-adv-x="819" d="M143 1352v61h533v-61h-533z" />
<glyph unicode="&#xb0;" horiz-adv-x="561" d="M113 1097.5q0 61.5 38.5 107.5t98.5 57v-62q-76 -25 -76 -102q0 -37 20.5 -64.5t55.5 -38.5v-63q-59 10 -98 57t-39 108.5zM311 932v63q33 10 54.5 38t21.5 65t-21.5 64.5t-54.5 37.5v62q59 -10 98.5 -56.5t39.5 -108t-39.5 -108.5t-98.5 -57z" />
<glyph unicode="&#xb1;" horiz-adv-x="983" d="M123 205v61h737v-61h-737zM123 664v61h338v336h61v-336h338v-61h-338v-336h-61v336h-338z" />
<glyph unicode="&#xb2;" horiz-adv-x="651" d="M102 985l54 62h383v-62h-437zM141 1554q59 115 191 115q82 0 144.5 -51t62.5 -139q0 -86 -107 -207l-143 -164h-80l178 205q90 102 90 166q0 59 -44 94t-101 35q-98 0 -137 -82z" />
<glyph unicode="&#xb3;" horiz-adv-x="595" d="M106 987l13 62q23 -4 59 -5q102 0 178 41t76 113q0 41 -35 77t-84 54q-47 14 -184 23l131 186h76l-92 -131q57 -8 90 -21q70 -25 115 -75.5t45 -112.5q0 -100 -94.5 -157.5t-221.5 -57.5q-49 0 -72 4zM123 1599v62h301l-45 -62h-256z" />
<glyph unicode="&#xb4;" horiz-adv-x="632" d="M143 1294l310 224l36 -50l-309 -223z" />
<glyph unicode="&#xb6;" horiz-adv-x="851" d="M102 1155q0 115 82 197t197 82h450v-62h-450q-90 0 -153.5 -63.5t-63.5 -153.5t63.5 -153.5t153.5 -63.5v-61q-115 0 -197 81.5t-82 196.5zM442 0v1311h62v-1311h-62zM668 0v1311h61v-1311h-61z" />
<glyph unicode="&#xb7;" horiz-adv-x="327" d="M102 569v123h123v-123h-123z" />
<glyph unicode="&#xb8;" horiz-adv-x="552" d="M219 -223l21 57q18 -8 47 -8q61 0 61 41q0 20 -65 20h-27l31 119l61 -16l-12 -39q74 -14 74 -84q0 -51 -37 -77t-88 -26q-35 1 -66 13z" />
<glyph unicode="&#xb9;" horiz-adv-x="456" d="M102 1405l109 137v-100l-59 -74zM272 985v635l62 78v-713h-62z" />
<glyph unicode="&#xbb;" horiz-adv-x="854" d="M102 334l281 219l-281 221l37 49l346 -270l-346 -268zM369 334l280 219l-280 221l37 49l346 -270l-346 -268z" />
<glyph unicode="&#xbf;" horiz-adv-x="870" d="M102 16q0 229 238 353q84 43 127 94t43 133v166h61v-166q0 -180 -196 -281q-72 -41 -108 -68.5t-69.5 -88t-33.5 -142.5q0 -145 110.5 -233t255.5 -88q238 0 340 203l56 -25q-119 -240 -394 -240q-168 0 -299 101.5t-131 281.5zM479 975v123h123v-123h-123z" />
<glyph unicode="&#xc0;" horiz-adv-x="1298" d="M100 10l484 1282l32 -86l-458 -1216zM373 387l22 62h572l-351 931l33 88l549 -1458l-57 -20l-150 397h-618zM477 1778l37 49l309 -223l-37 -50z" />
<glyph unicode="&#xc1;" horiz-adv-x="1298" d="M100 10l484 1282l32 -86l-458 -1216zM373 387l22 62h572l-351 931l33 88l549 -1458l-57 -20l-150 397h-618zM508 1604l309 223l37 -49l-309 -224z" />
<glyph unicode="&#xc2;" horiz-adv-x="1298" d="M100 10l484 1282l32 -86l-458 -1216zM373 387l22 62h572l-351 931l33 88l549 -1458l-57 -20l-150 397h-618zM467 1591l182 236l185 -236l-50 -37l-135 170l-133 -170z" />
<glyph unicode="&#xc3;" horiz-adv-x="1298" d="M100 10l484 1282l32 -86l-458 -1216zM373 387l22 62h572l-351 931l33 88l549 -1458l-57 -20l-150 397h-618zM408 1663q51 96 143 96q59 0 117 -45q41 -31 77 -31q61 0 97 72l49 -37q-53 -96 -146 -96q-57 0 -114 43q-43 33 -80 33q-61 0 -94 -72z" />
<glyph unicode="&#xc4;" horiz-adv-x="1298" d="M100 10l484 1282l32 -86l-458 -1216zM373 387l22 62h572l-351 931l33 88l549 -1458l-57 -20l-150 397h-618zM461 1640v103h102v-103h-102zM737 1640v103h103v-103h-103z" />
<glyph unicode="&#xc5;" horiz-adv-x="1298" d="M100 10l484 1282l32 -86l-458 -1216zM373 387l22 62h572l-351 931l33 88l549 -1458l-57 -20l-150 397h-618zM512 1691.5q0 49.5 29.5 86.5t76.5 47v-66q-45 -20 -45 -67q0 -49 45 -70v-63q-47 10 -76.5 46.5t-29.5 86zM680 1559v63q45 20 45 70q0 47 -45 67v66 q45 -10 75.5 -47t30.5 -86.5t-30.5 -86t-75.5 -46.5z" />
<glyph unicode="&#xc6;" horiz-adv-x="1531" d="M102 14l711 1420h606v-62h-569l-485 -966h387v-62h-418l-178 -358zM813 0v1163l61 123v-455h410v-61h-410v-709h545v-61h-606z" />
<glyph unicode="&#xc7;" horiz-adv-x="1060" d="M113 717q0 139 44 267t128 231.5t220 165t304 61.5q82 0 149 -6l-4 -62q-68 6 -145 6q-154 0 -277.5 -56t-199.5 -151.5t-117 -212t-41 -243.5t41 -244t117 -211t198.5 -150.5t276.5 -56.5q80 0 147 6l4 -61q-68 -6 -151 -6q-45 0 -88 6l-12 -39q74 -14 73 -84 q0 -51 -36.5 -76.5t-88.5 -25.5q-35 0 -65 12l20 57q18 -8 47 -8q61 0 62 41q0 20 -66 21h-26l28 110q-174 33 -300 142.5t-184 255t-58 311.5z" />
<glyph unicode="&#xc8;" horiz-adv-x="1067" d="M143 0v1434h62v-1434h-62zM266 0v61h688v-61h-688zM266 770v61h553v-61h-553zM266 1372v62h688v-62h-688zM377 1778l37 49l309 -223l-37 -50z" />
<glyph unicode="&#xc9;" horiz-adv-x="1067" d="M143 0v1434h62v-1434h-62zM266 0v61h688v-61h-688zM266 770v61h553v-61h-553zM266 1372v62h688v-62h-688zM377 1604l309 223l37 -49l-309 -224z" />
<glyph unicode="&#xca;" horiz-adv-x="1067" d="M143 0v1434h62v-1434h-62zM266 0v61h688v-61h-688zM266 770v61h553v-61h-553zM266 1372v62h688v-62h-688zM367 1591l182 236l184 -236l-49 -37l-135 170l-133 -170z" />
<glyph unicode="&#xcb;" horiz-adv-x="1067" d="M143 0v1434h62v-1434h-62zM266 0v61h688v-61h-688zM266 770v61h553v-61h-553zM266 1372v62h688v-62h-688zM360 1640v103h103v-103h-103zM637 1640v103h102v-103h-102z" />
<glyph unicode="&#xcc;" d="M2 1778l37 49l309 -223l-37 -50zM143 0v1434h62v-1434h-62z" />
<glyph unicode="&#xcd;" d="M33 1604l309 223l37 -49l-309 -224zM143 0v1434h62v-1434h-62z" />
<glyph unicode="&#xce;" d="M-8 1591l182 236l184 -236l-49 -37l-135 170l-133 -170zM143 0v1434h62v-1434h-62z" />
<glyph unicode="&#xcf;" d="M-14 1640v103h102v-103h-102zM143 0v1434h62v-1434h-62zM262 1640v103h103v-103h-103z" />
<glyph unicode="&#xd1;" horiz-adv-x="1140" d="M143 0v1251l62 -104v-1147h-62zM143 1372v121l854 -1430v-122zM328 1663q51 96 143 96q59 0 117 -45q41 -31 78 -31q61 0 96 72l49 -37q-53 -96 -145 -96q-55 0 -115 43q-43 33 -80 33q-61 0 -94 -72zM936 289v1145h61v-1248z" />
<glyph unicode="&#xd2;" horiz-adv-x="1675" d="M102 717q0 295 205 508t500 225v-61q-270 -12 -456.5 -207t-186.5 -465.5t186.5 -466t456.5 -207.5v-61q-295 12 -500 226t-205 509zM666 1778l36 49l310 -223l-37 -50zM868 -18v61q270 12 456.5 207.5t186.5 466t-186 465t-457 207.5v61q295 -12 500 -225t205 -508 t-205 -509t-500 -226z" />
<glyph unicode="&#xd3;" horiz-adv-x="1675" d="M102 717q0 295 205 508t500 225v-61q-270 -12 -456.5 -207t-186.5 -465.5t186.5 -466t456.5 -207.5v-61q-295 12 -500 226t-205 509zM666 1604l309 223l37 -49l-310 -224zM868 -18v61q270 12 456.5 207.5t186.5 466t-186 465t-457 207.5v61q295 -12 500 -225t205 -508 t-205 -509t-500 -226z" />
<glyph unicode="&#xd4;" horiz-adv-x="1675" d="M102 717q0 295 205 508t500 225v-61q-270 -12 -456.5 -207t-186.5 -465.5t186.5 -466t456.5 -207.5v-61q-295 12 -500 226t-205 509zM655 1591l183 236l184 -236l-49 -37l-135 170l-133 -170zM868 -18v61q270 12 456.5 207.5t186.5 466t-186 465t-457 207.5v61 q295 -12 500 -225t205 -508t-205 -509t-500 -226z" />
<glyph unicode="&#xd5;" horiz-adv-x="1675" d="M102 717q0 295 205 508t500 225v-61q-270 -12 -456.5 -207t-186.5 -465.5t186.5 -466t456.5 -207.5v-61q-295 12 -500 226t-205 509zM596 1663q51 96 143 96q59 0 117 -45q39 -31 78 -31q61 0 96 72l49 -37q-53 -96 -145 -96q-57 0 -115 43q-43 33 -80 33q-61 0 -94 -72z M868 -18v61q270 12 456.5 207.5t186.5 466t-186 465t-457 207.5v61q295 -12 500 -225t205 -508t-205 -509t-500 -226z" />
<glyph unicode="&#xd6;" horiz-adv-x="1675" d="M102 717q0 295 205 508t500 225v-61q-270 -12 -456.5 -207t-186.5 -465.5t186.5 -466t456.5 -207.5v-61q-295 12 -500 226t-205 509zM649 1640v103h103v-103h-103zM868 -18v61q270 12 456.5 207.5t186.5 466t-186 465t-457 207.5v61q295 -12 500 -225t205 -508t-205 -509 t-500 -226zM926 1640v103h102v-103h-102z" />
<glyph unicode="&#xd7;" horiz-adv-x="983" d="M123 309l692 692l45 -45l-692 -692zM123 956l45 45l278 -278l-45 -45zM537 543l45 45l278 -279l-45 -45z" />
<glyph unicode="&#xd8;" horiz-adv-x="1675" d="M102 27l193 192q-193 213 -193 498q0 295 205 509t500 226v-61q-270 -12 -456.5 -208t-186.5 -466q0 -260 174 -455l952 952q-180 164 -422 177v61q262 -8 465 -195l195 195l45 -45l-195 -195q195 -211 195 -495q0 -295 -205 -509t-500 -226v61q270 12 456.5 207.5 t186.5 466.5q0 260 -176 452l-952 -952q182 -166 424 -174v-61q-266 8 -467 192l-193 -192z" />
<glyph unicode="&#xd9;" horiz-adv-x="1142" d="M135 395v1039h62v-1039q0 -147 99 -245.5t245 -108.5v-61q-170 10 -288 125.5t-118 289.5zM399 1778l37 49l309 -223l-36 -50zM602 -20v61q143 10 243.5 108.5t100.5 245.5v1039h62v-1039q0 -174 -118 -289.5t-288 -125.5z" />
<glyph unicode="&#xda;" horiz-adv-x="1142" d="M135 395v1039h62v-1039q0 -147 99 -245.5t245 -108.5v-61q-170 10 -288 125.5t-118 289.5zM399 1604l310 223l36 -49l-309 -224zM602 -20v61q143 10 243.5 108.5t100.5 245.5v1039h62v-1039q0 -174 -118 -289.5t-288 -125.5z" />
<glyph unicode="&#xdb;" horiz-adv-x="1142" d="M135 395v1039h62v-1039q0 -147 99 -245.5t245 -108.5v-61q-170 10 -288 125.5t-118 289.5zM389 1591l182 236l185 -236l-49 -37l-136 170l-133 -170zM602 -20v61q143 10 243.5 108.5t100.5 245.5v1039h62v-1039q0 -174 -118 -289.5t-288 -125.5z" />
<glyph unicode="&#xdc;" horiz-adv-x="1142" d="M135 395v1039h62v-1039q0 -147 99 -245.5t245 -108.5v-61q-170 10 -288 125.5t-118 289.5zM383 1640v103h102v-103h-102zM602 -20v61q143 10 243.5 108.5t100.5 245.5v1039h62v-1039q0 -174 -118 -289.5t-288 -125.5zM659 1640v103h103v-103h-103z" />
<glyph unicode="&#xdd;" horiz-adv-x="1142" d="M102 1417l54 33l446 -723v-727h-61v707zM399 1604l310 223l36 -49l-309 -224zM608 836l379 614l53 -33l-395 -641z" />
<glyph unicode="&#xde;" horiz-adv-x="956" d="M143 0v1434h62v-1434h-62zM266 279v61h29q231 0 364.5 111.5t133.5 267t-134.5 267.5t-363.5 112h-29v61h29q258 0 408.5 -130t150.5 -310q0 -182 -149.5 -311t-409.5 -129h-29z" />
<glyph unicode="&#xdf;" horiz-adv-x="1107" d="M135 0v1251q0 131 95.5 218t218.5 87v-61q-98 0 -175 -69.5t-77 -174.5v-1251h-62zM258 1036v62h655l-329 -492q166 -29 288.5 -152.5t122.5 -281.5q0 -215 -163.5 -363.5t-442.5 -148.5v61q250 0 397.5 131.5t147.5 319.5q0 152 -139.5 264.5t-319.5 112.5l324 487h-541 z" />
<glyph unicode="&#xe0;" horiz-adv-x="1089" d="M113 383q0 178 127 288.5t307 110.5q164 0 297 -92v-74q-123 104 -297 105q-156 0 -264.5 -93t-108.5 -245t109.5 -247t263.5 -95q174 0 297 94v-76q-123 -80 -297 -79q-178 0 -306 112.5t-128 290.5zM221 967q158 152 377 151q63 0 124.5 -21.5t118 -67.5t91.5 -131 t35 -200v-698h-62v698q0 186 -93 272.5t-214 86.5q-197 0 -332 -131zM410 1468l36 50l310 -224l-37 -49z" />
<glyph unicode="&#xe1;" horiz-adv-x="1089" d="M113 383q0 178 127 288.5t307 110.5q164 0 297 -92v-74q-123 104 -297 105q-156 0 -264.5 -93t-108.5 -245t109.5 -247t263.5 -95q174 0 297 94v-76q-123 -80 -297 -79q-178 0 -306 112.5t-128 290.5zM221 967q158 152 377 151q63 0 124.5 -21.5t118 -67.5t91.5 -131 t35 -200v-698h-62v698q0 186 -93 272.5t-214 86.5q-197 0 -332 -131zM438 1294l310 224l36 -50l-309 -223z" />
<glyph unicode="&#xe2;" horiz-adv-x="1089" d="M113 383q0 178 127 288.5t307 110.5q164 0 297 -92v-74q-123 104 -297 105q-156 0 -264.5 -93t-108.5 -245t109.5 -247t263.5 -95q174 0 297 94v-76q-123 -80 -297 -79q-178 0 -306 112.5t-128 290.5zM221 967q158 152 377 151q63 0 124.5 -21.5t118 -67.5t91.5 -131 t35 -200v-698h-62v698q0 186 -93 272.5t-214 86.5q-197 0 -332 -131zM414 1282l182 236l184 -236l-49 -37l-135 170l-133 -170z" />
<glyph unicode="&#xe3;" horiz-adv-x="1089" d="M113 383q0 178 127 288.5t307 110.5q164 0 297 -92v-74q-123 104 -297 105q-156 0 -264.5 -93t-108.5 -245t109.5 -247t263.5 -95q174 0 297 94v-76q-123 -80 -297 -79q-178 0 -306 112.5t-128 290.5zM221 967q158 152 377 151q63 0 124.5 -21.5t118 -67.5t91.5 -131 t35 -200v-698h-62v698q0 186 -93 272.5t-214 86.5q-197 0 -332 -131zM340 1354q51 96 143 96q59 0 117 -45q41 -31 78 -31q61 0 96 72l49 -37q-53 -96 -145 -96q-55 0 -115 43q-43 33 -80 33q-61 0 -94 -72z" />
<glyph unicode="&#xe4;" horiz-adv-x="1089" d="M113 383q0 178 127 288.5t307 110.5q164 0 297 -92v-74q-123 104 -297 105q-156 0 -264.5 -93t-108.5 -245t109.5 -247t263.5 -95q174 0 297 94v-76q-123 -80 -297 -79q-178 0 -306 112.5t-128 290.5zM221 967q158 152 377 151q63 0 124.5 -21.5t118 -67.5t91.5 -131 t35 -200v-698h-62v698q0 186 -93 272.5t-214 86.5q-197 0 -332 -131zM397 1331v103h103v-103h-103zM674 1331v103h102v-103h-102z" />
<glyph unicode="&#xe5;" horiz-adv-x="1089" d="M113 383q0 178 127 288.5t307 110.5q164 0 297 -92v-74q-123 104 -297 105q-156 0 -264.5 -93t-108.5 -245t109.5 -247t263.5 -95q174 0 297 94v-76q-123 -80 -297 -79q-178 0 -306 112.5t-128 290.5zM221 967q158 152 377 151q63 0 124.5 -21.5t118 -67.5t91.5 -131 t35 -200v-698h-62v698q0 186 -93 272.5t-214 86.5q-197 0 -332 -131zM428 1382.5q0 49.5 29.5 86t77.5 47.5v-66q-45 -20 -46 -68q0 -49 46 -69v-64q-47 10 -77 47t-30 86.5zM596 1249v64q45 20 45 69q0 47 -45 68v66q45 -10 75.5 -47t30.5 -86.5t-30.5 -86.5t-75.5 -47z " />
<glyph unicode="&#xe6;" horiz-adv-x="1912" d="M113 383q0 178 127 288.5t307 110.5q164 0 297 -92v-74q-123 104 -297 105q-156 0 -264.5 -93t-108.5 -245t109.5 -247t263.5 -95q174 0 297 94v-76q-123 -80 -297 -79q-178 0 -306 112.5t-128 290.5zM221 967q158 152 377 151q127 0 228.5 -77.5t127.5 -221.5 q66 152 191 225.5t248 73.5q209 0 313 -142t104 -374h-778q0 20 8 62h705q0 152 -88 272.5t-264 120.5q-143 0 -265 -102.5t-153 -290.5q-8 -49 -8 -111v-18q6 -197 163.5 -339.5t452.5 -142.5q39 0 125 8v-61q-90 -8 -131 -8q-225 0 -381 85t-229 224v-301h-62v696 q0 188 -93 274.5t-214 86.5q-197 0 -332 -131z" />
<glyph unicode="&#xe7;" horiz-adv-x="1030" d="M102 549q0 229 183.5 397t513.5 168q61 0 129 -6l-4 -61q-68 6 -125 6q-299 0 -467 -150.5t-168 -353.5t167 -352.5t466 -149.5q59 0 127 6l4 -61q-68 -6 -131 -6q-70 0 -148 10l-10 -37q74 -14 74 -84q0 -51 -37 -76.5t-88 -25.5q-35 0 -66 12l21 57q18 -8 47 -8 q61 0 61 41q0 20 -65 21h-27l29 110q-231 51 -358.5 204t-127.5 339z" />
<glyph unicode="&#xe8;" horiz-adv-x="1150" d="M102 553q0 152 49.5 267.5t126 177t156.5 91t156 29.5q213 0 336 -145.5t123 -370.5h-822q0 31 6 62h750q0 145 -106.5 269t-286.5 124q-70 0 -140.5 -29t-137 -85t-107.5 -157.5t-41 -232.5q0 -201 167 -350.5t470 -149.5q39 0 125 8v-61q-90 -8 -131 -8 q-324 0 -508.5 166t-184.5 395zM414 1468l37 50l309 -224l-37 -49z" />
<glyph unicode="&#xe9;" horiz-adv-x="1150" d="M102 553q0 152 49.5 267.5t126 177t156.5 91t156 29.5q213 0 336 -145.5t123 -370.5h-822q0 31 6 62h750q0 145 -106.5 269t-286.5 124q-70 0 -140.5 -29t-137 -85t-107.5 -157.5t-41 -232.5q0 -201 167 -350.5t470 -149.5q39 0 125 8v-61q-90 -8 -131 -8 q-324 0 -508.5 166t-184.5 395zM430 1294l309 224l37 -50l-309 -223z" />
<glyph unicode="&#xea;" horiz-adv-x="1150" d="M102 553q0 152 49.5 267.5t126 177t156.5 91t156 29.5q213 0 336 -145.5t123 -370.5h-822q0 31 6 62h750q0 145 -106.5 269t-286.5 124q-70 0 -140.5 -29t-137 -85t-107.5 -157.5t-41 -232.5q0 -201 167 -350.5t470 -149.5q39 0 125 8v-61q-90 -8 -131 -8 q-324 0 -508.5 166t-184.5 395zM414 1282l182 236l184 -236l-49 -37l-135 170l-133 -170z" />
<glyph unicode="&#xeb;" horiz-adv-x="1150" d="M102 553q0 152 49.5 267.5t126 177t156.5 91t156 29.5q213 0 336 -145.5t123 -370.5h-822q0 31 6 62h750q0 145 -106.5 269t-286.5 124q-70 0 -140.5 -29t-137 -85t-107.5 -157.5t-41 -232.5q0 -201 167 -350.5t470 -149.5q39 0 125 8v-61q-90 -8 -131 -8 q-324 0 -508.5 166t-184.5 395zM408 1331v103h102v-103h-102zM684 1331v103h102v-103h-102z" />
<glyph unicode="&#xec;" d="M2 1468l37 50l309 -224l-37 -49zM143 0v1098h62v-1098h-62z" />
<glyph unicode="&#xed;" d="M33 1294l309 224l37 -50l-309 -223zM143 0v1098h62v-1098h-62z" />
<glyph unicode="&#xee;" d="M-8 1282l182 236l184 -236l-49 -37l-135 170l-133 -170zM143 0v1098h62v-1098h-62z" />
<glyph unicode="&#xef;" d="M-14 1331v103h102v-103h-102zM143 0v1098h62v-1098h-62zM262 1331v103h103v-103h-103z" />
<glyph unicode="&#xf1;" horiz-adv-x="1114" d="M135 0v1098h62v-1098h-62zM258 977v70q131 72 285 71q143 0 259 -71.5t165 -202.5q25 -66 24 -144v-700h-61v700q0 164 -118 260.5t-269 96.5q-158 0 -285 -80zM303 1354q51 96 143 96q59 0 117 -45q39 -31 78 -31q61 0 96 72l49 -37q-53 -96 -145 -96q-55 0 -115 43 q-43 33 -80 33q-61 0 -94 -72z" />
<glyph unicode="&#xf2;" horiz-adv-x="1343" d="M102 549q0 227 157 391t382 176v-61q-201 -12 -339 -157.5t-138 -348.5t138 -349.5t339 -158.5v-59q-225 12 -382 176t-157 391zM500 1468l37 50l309 -224l-37 -49zM702 -18v59q201 12 339.5 158.5t138.5 349.5t-138.5 348t-339.5 158v61q225 -12 382 -176t157 -391 t-157 -391t-382 -176z" />
<glyph unicode="&#xf3;" horiz-adv-x="1343" d="M102 549q0 227 157 391t382 176v-61q-201 -12 -339 -157.5t-138 -348.5t138 -349.5t339 -158.5v-59q-225 12 -382 176t-157 391zM524 1294l310 224l36 -50l-309 -223zM702 -18v59q201 12 339.5 158.5t138.5 349.5t-138.5 348t-339.5 158v61q225 -12 382 -176t157 -391 t-157 -391t-382 -176z" />
<glyph unicode="&#xf4;" horiz-adv-x="1343" d="M102 549q0 227 157 391t382 176v-61q-201 -12 -339 -157.5t-138 -348.5t138 -349.5t339 -158.5v-59q-225 12 -382 176t-157 391zM489 1282l183 236l184 -236l-49 -37l-135 170l-133 -170zM702 -18v59q201 12 339.5 158.5t138.5 349.5t-138.5 348t-339.5 158v61 q225 -12 382 -176t157 -391t-157 -391t-382 -176z" />
<glyph unicode="&#xf5;" horiz-adv-x="1343" d="M102 549q0 227 157 391t382 176v-61q-201 -12 -339 -157.5t-138 -348.5t138 -349.5t339 -158.5v-59q-225 12 -382 176t-157 391zM430 1354q51 96 143 96q59 0 117 -45q39 -31 78 -31q61 0 96 72l49 -37q-53 -96 -145 -96q-55 0 -115 43q-43 33 -80 33q-61 0 -94 -72z M702 -18v59q201 12 339.5 158.5t138.5 349.5t-138.5 348t-339.5 158v61q225 -12 382 -176t157 -391t-157 -391t-382 -176z" />
<glyph unicode="&#xf6;" horiz-adv-x="1343" d="M102 549q0 227 157 391t382 176v-61q-201 -12 -339 -157.5t-138 -348.5t138 -349.5t339 -158.5v-59q-225 12 -382 176t-157 391zM483 1331v103h103v-103h-103zM702 -18v59q201 12 339.5 158.5t138.5 349.5t-138.5 348t-339.5 158v61q225 -12 382 -176t157 -391t-157 -391 t-382 -176zM760 1331v103h102v-103h-102z" />
<glyph unicode="&#xf7;" horiz-adv-x="983" d="M113 602v62h757v-62h-757zM430 264v123h123v-123h-123zM430 879v122h123v-122h-123z" />
<glyph unicode="&#xf8;" horiz-adv-x="1343" d="M102 23l146 145q-145 166 -146 381q0 227 157 391t382 176v-61q-201 -12 -339 -157.5t-138 -348.5q0 -195 127 -338l717 719q-131 117 -306 125v61q195 -8 347 -143l147 147l45 -45l-147 -147q147 -160 147 -379q0 -227 -156.5 -391t-382.5 -176v59q201 12 339.5 158.5 t138.5 349.5q0 188 -127 336l-717 -719q129 -113 305 -125v-59q-203 10 -348 141l-146 -146z" />
<glyph unicode="&#xf9;" horiz-adv-x="1101" d="M123 395v703h61v-703q0 -147 96.5 -245.5t239.5 -108.5v-61q-168 10 -282.5 125.5t-114.5 289.5zM350 1468l37 50l309 -224l-37 -49zM582 -20v61q143 10 239.5 108.5t96.5 245.5v703h61v-703q0 -174 -114.5 -289.5t-282.5 -125.5z" />
<glyph unicode="&#xfa;" horiz-adv-x="1101" d="M123 395v703h61v-703q0 -147 96.5 -245.5t239.5 -108.5v-61q-168 10 -282.5 125.5t-114.5 289.5zM391 1294l309 224l37 -50l-309 -223zM582 -20v61q143 10 239.5 108.5t96.5 245.5v703h61v-703q0 -174 -114.5 -289.5t-282.5 -125.5z" />
<glyph unicode="&#xfb;" horiz-adv-x="1101" d="M123 395v703h61v-703q0 -147 96.5 -245.5t239.5 -108.5v-61q-168 10 -282.5 125.5t-114.5 289.5zM375 1282l182 236l184 -236l-49 -37l-135 170l-133 -170zM582 -20v61q143 10 239.5 108.5t96.5 245.5v703h61v-703q0 -174 -114.5 -289.5t-282.5 -125.5z" />
<glyph unicode="&#xfc;" horiz-adv-x="1101" d="M123 395v703h61v-703q0 -147 96.5 -245.5t239.5 -108.5v-61q-168 10 -282.5 125.5t-114.5 289.5zM369 1331v103h102v-103h-102zM582 -20v61q143 10 239.5 108.5t96.5 245.5v703h61v-703q0 -174 -114.5 -289.5t-282.5 -125.5zM645 1331v103h103v-103h-103z" />
<glyph unicode="&#xfd;" horiz-adv-x="1110" d="M123 381v717h61v-721q0 -160 115 -258.5t268.5 -98.5t284.5 107v-80q-131 -88 -283 -88q-168 0 -307 113.5t-139 308.5zM264 -461l41 45q127 -123 262 -123q152 0 249 124t97 292v1221h62v-1221q0 -193 -113.5 -335t-294.5 -142q-160 0 -303 139zM377 1294l309 224 l37 -50l-309 -223z" />
<glyph unicode="&#xfe;" horiz-adv-x="1052" d="M123 -481v2074h61v-2074h-61zM246 -4v61h8q301 0 468 147.5t167 350.5t-167 350.5t-466 147.5h-10v61h10q328 0 511 -166t183 -393q0 -229 -183 -394t-513 -165h-8z" />
<glyph unicode="&#xff;" horiz-adv-x="1110" d="M123 381v717h61v-721q0 -160 115 -258.5t268.5 -98.5t284.5 107v-80q-131 -88 -283 -88q-168 0 -307 113.5t-139 308.5zM264 -461l41 45q127 -123 262 -123q152 0 249 124t97 292v1221h62v-1221q0 -193 -113.5 -335t-294.5 -142q-160 0 -303 139zM360 1331v103h103v-103 h-103zM637 1331v103h102v-103h-102z" />
<glyph unicode="&#x100;" horiz-adv-x="1298" d="M100 10l484 1282l32 -86l-458 -1216zM373 387l22 62h572l-351 931l33 88l549 -1458l-57 -20l-150 397h-618zM383 1661v61h532v-61h-532z" />
<glyph unicode="&#x101;" horiz-adv-x="1089" d="M113 383q0 178 127 288.5t307 110.5q164 0 297 -92v-74q-123 104 -297 105q-156 0 -264.5 -93t-108.5 -245t109.5 -247t263.5 -95q174 0 297 94v-76q-123 -80 -297 -79q-178 0 -306 112.5t-128 290.5zM221 967q158 152 377 151q63 0 124.5 -21.5t118 -67.5t91.5 -131 t35 -200v-698h-62v698q0 186 -93 272.5t-214 86.5q-197 0 -332 -131zM303 1352v61h533v-61h-533z" />
<glyph unicode="&#x102;" horiz-adv-x="1298" d="M100 10l484 1282l32 -86l-458 -1216zM373 387l22 62h572l-351 931l33 88l549 -1458l-57 -20l-150 397h-618zM444 1784h62q0 -55 39 -89t104.5 -34t104.5 34t39 89h61q0 -78 -57.5 -131.5t-147.5 -53.5t-147.5 53.5t-57.5 131.5z" />
<glyph unicode="&#x103;" horiz-adv-x="1089" d="M113 383q0 178 127 288.5t307 110.5q164 0 297 -92v-74q-123 104 -297 105q-156 0 -264.5 -93t-108.5 -245t109.5 -247t263.5 -95q174 0 297 94v-76q-123 -80 -297 -79q-178 0 -306 112.5t-128 290.5zM221 967q158 152 377 151q63 0 124.5 -21.5t118 -67.5t91.5 -131 t35 -200v-698h-62v698q0 186 -93 272.5t-214 86.5q-197 0 -332 -131zM362 1475h62q0 -55 39 -89t104.5 -34t104.5 33.5t39 89.5h61q0 -78 -57.5 -131.5t-147.5 -53.5t-147.5 53.5t-57.5 131.5z" />
<glyph unicode="&#x104;" horiz-adv-x="1298" d="M102 10l469 1282l31 -82l-444 -1222zM367 387l22 62h574l-361 931l33 88l561 -1454l-27 -12l15 -27q-94 -49 -94 -96q0 -35 43 -35q27 0 61 23l33 -53q-49 -31 -94 -31q-47 0 -76 26.5t-29 69.5q0 78 102 135l-143 373h-620z" />
<glyph unicode="&#x105;" horiz-adv-x="1089" d="M113 383q0 178 127 288.5t307 110.5q164 0 297 -92v-74q-123 104 -297 105q-156 0 -264.5 -93t-108.5 -245t109.5 -247t263.5 -95q174 0 297 96v-78q-123 -80 -297 -79q-178 0 -306 112.5t-128 290.5zM221 967q158 152 377 151q63 0 124.5 -21.5t118 -67.5t91.5 -131 t35 -200v-698h-31l14 -25q-94 -49 -94 -96q0 -35 43 -35q29 0 62 23l32 -53q-49 -31 -94 -31q-47 0 -75.5 26.5t-28.5 69.5q0 82 110 141v678q0 186 -93 272.5t-214 86.5q-197 0 -332 -131z" />
<glyph unicode="&#x106;" horiz-adv-x="1060" d="M113 717q0 139 44 267t128 231.5t220 165t304 61.5q82 0 149 -6l-4 -62q-68 6 -145 6q-154 0 -277.5 -56t-199.5 -151.5t-117 -212t-41 -243.5t41 -244t117 -211t198.5 -150.5t276.5 -56.5q80 0 147 6l4 -61q-68 -6 -151 -6q-168 0 -303 61.5t-219 165t-128 230.5 t-44 266zM494 1604l309 223l37 -49l-310 -224z" />
<glyph unicode="&#x107;" horiz-adv-x="1030" d="M102 548.5q0 229.5 183.5 397.5t511.5 168q63 0 131 -6l-4 -61q-68 6 -127 6q-299 0 -466 -150.5t-167 -353.5t167 -352.5t466 -149.5q59 0 127 6l4 -61q-68 -6 -131 -6q-328 0 -511.5 166.5t-183.5 396zM453 1294l309 224l37 -50l-310 -223z" />
<glyph unicode="&#x108;" horiz-adv-x="1060" d="M113 717q0 139 44 267t128 231.5t220 165t304 61.5q82 0 149 -6l-4 -62q-68 6 -145 6q-154 0 -277.5 -56t-199.5 -151.5t-117 -212t-41 -243.5t41 -244t117 -211t198.5 -150.5t276.5 -56.5q80 0 147 6l4 -61q-68 -6 -151 -6q-168 0 -303 61.5t-219 165t-128 230.5 t-44 266zM465 1591l182 236l184 -236l-49 -37l-135 170l-133 -170z" />
<glyph unicode="&#x109;" horiz-adv-x="1030" d="M102 548.5q0 229.5 183.5 397.5t511.5 168q63 0 131 -6l-4 -61q-68 6 -127 6q-299 0 -466 -150.5t-167 -353.5t167 -352.5t466 -149.5q59 0 127 6l4 -61q-68 -6 -131 -6q-328 0 -511.5 166.5t-183.5 396zM422 1282l182 236l184 -236l-49 -37l-135 170l-133 -170z" />
<glyph unicode="&#x10a;" horiz-adv-x="1060" d="M113 717q0 139 44 267t128 231.5t220 165t304 61.5q82 0 149 -6l-4 -62q-68 6 -145 6q-154 0 -277.5 -56t-199.5 -151.5t-117 -212t-41 -243.5t41 -244t117 -211t198.5 -150.5t276.5 -56.5q80 0 147 6l4 -61q-68 -6 -151 -6q-168 0 -303 61.5t-219 165t-128 230.5 t-44 266zM600 1640v103h102v-103h-102z" />
<glyph unicode="&#x10b;" horiz-adv-x="1030" d="M102 548.5q0 229.5 183.5 397.5t511.5 168q63 0 131 -6l-4 -61q-68 6 -127 6q-299 0 -466 -150.5t-167 -353.5t167 -352.5t466 -149.5q59 0 127 6l4 -61q-68 -6 -131 -6q-328 0 -511.5 166.5t-183.5 396zM578 1331v103h102v-103h-102z" />
<glyph unicode="&#x10c;" horiz-adv-x="1060" d="M113 717q0 139 44 267t128 231.5t220 165t304 61.5q82 0 149 -6l-4 -62q-68 6 -145 6q-154 0 -277.5 -56t-199.5 -151.5t-117 -212t-41 -243.5t41 -244t117 -211t198.5 -150.5t276.5 -56.5q80 0 147 6l4 -61q-68 -6 -151 -6q-168 0 -303 61.5t-219 165t-128 230.5 t-44 266zM483 1790l49 37l134 -170l135 170l49 -37l-184 -236z" />
<glyph unicode="&#x10d;" horiz-adv-x="1030" d="M102 548.5q0 229.5 183.5 397.5t511.5 168q63 0 131 -6l-4 -61q-68 6 -127 6q-299 0 -466 -150.5t-167 -353.5t167 -352.5t466 -149.5q59 0 127 6l4 -61q-68 -6 -131 -6q-328 0 -511.5 166.5t-183.5 396zM426 1481l49 37l133 -170l135 170l50 -37l-185 -236z" />
<glyph unicode="&#x10e;" horiz-adv-x="1128" d="M143 0v1434q8 0 29 2t33 2v-1442q-12 0 -33 2t-29 2zM225 1790l49 37l134 -170l135 170l49 -37l-184 -236zM266 -6v61h56q154 0 276.5 56.5t198 150.5t116.5 211t41 244t-41 243.5t-116.5 212t-199.5 151.5t-275 56q-35 0 -56 -2v62q20 2 56 2q221 0 382.5 -106.5 t236.5 -268.5t75 -350q0 -139 -44 -266t-128 -230.5t-219.5 -165t-302.5 -61.5h-56z" />
<glyph unicode="&#x10f;" horiz-adv-x="1228" d="M102 553q0 229 183.5 395t513.5 166h32v-61h-32q-301 0 -468 -148.5t-167 -351.5t167 -350.5t466 -147.5h34v-61h-34q-328 0 -511.5 166t-183.5 393zM893 -4v1833h61v-1829q-41 -4 -61 -4zM1098 1716v113h123v-143q0 -119 -97 -154l-20 57q55 18 55 97v30h-61z" />
<glyph unicode="&#x110;" horiz-adv-x="1148" d="M-31 717v61h195v656q12 0 61 4v-1442q-49 4 -61 4v717h-195zM287 -6v61h55q154 0 276.5 56.5t198.5 150.5t117 211t41 244t-41 243.5t-117 212t-199.5 151.5t-275.5 56q-35 0 -55 -2v62q20 2 55 2q221 0 383 -106.5t236.5 -268.5t74.5 -350q0 -139 -44 -266t-128 -230.5 t-219 -165t-303 -61.5h-55zM287 717v61h215v-61h-215z" />
<glyph unicode="&#x111;" horiz-adv-x="1120" d="M102 553q0 229 183.5 395t513.5 166h32v-61h-32q-301 0 -468 -148.5t-167 -351.5t167 -350.5t466 -147.5h34v-61h-34q-328 0 -511.5 166t-183.5 393zM657 1495v61h533v-61h-533zM893 -4v1438h61v-1434q-20 -4 -61 -4zM893 1618v211h61v-211h-61z" />
<glyph unicode="&#x112;" horiz-adv-x="1067" d="M143 0v1434h62v-1434h-62zM266 0v61h688v-61h-688zM266 770v61h553v-61h-553zM266 1372v62h688v-62h-688zM283 1661v61h532v-61h-532z" />
<glyph unicode="&#x113;" horiz-adv-x="1150" d="M102 553q0 152 49.5 267.5t126 177t156.5 91t156 29.5q213 0 336 -145.5t123 -370.5h-822q0 31 6 62h750q0 145 -106.5 269t-286.5 124q-70 0 -140.5 -29t-137 -85t-107.5 -157.5t-41 -232.5q0 -201 167 -350.5t470 -149.5q39 0 125 8v-61q-90 -8 -131 -8 q-324 0 -508.5 166t-184.5 395zM309 1352v61h533v-61h-533z" />
<glyph unicode="&#x114;" horiz-adv-x="1067" d="M143 0v1434h62v-1434h-62zM266 0v61h688v-61h-688zM266 770v61h553v-61h-553zM266 1372v62h688v-62h-688zM344 1784h62q0 -55 38.5 -89t104 -34t104.5 34t39 89h62q0 -78 -57.5 -131.5t-147.5 -53.5t-147.5 53.5t-57.5 131.5z" />
<glyph unicode="&#x115;" horiz-adv-x="1150" d="M102 553q0 152 49.5 267.5t126 177t156.5 91t156 29.5q213 0 336 -145.5t123 -370.5h-822q0 31 6 62h750q0 145 -106.5 269t-286.5 124q-70 0 -140.5 -29t-137 -85t-107.5 -157.5t-41 -232.5q0 -201 167 -350.5t470 -149.5q39 0 125 8v-61q-90 -8 -131 -8 q-324 0 -508.5 166t-184.5 395zM371 1475h61q0 -55 39 -89t104.5 -34t104.5 33.5t39 89.5h61q0 -78 -57 -131.5t-147.5 -53.5t-147.5 53.5t-57 131.5z" />
<glyph unicode="&#x116;" horiz-adv-x="1067" d="M143 0v1434h62v-1434h-62zM266 0v61h688v-61h-688zM266 770v61h553v-61h-553zM266 1372v62h688v-62h-688zM498 1640v103h102v-103h-102z" />
<glyph unicode="&#x117;" horiz-adv-x="1150" d="M102 553q0 152 49.5 267.5t126 177t156.5 91t156 29.5q213 0 336 -145.5t123 -370.5h-822q0 31 6 62h750q0 145 -106.5 269t-286.5 124q-70 0 -140.5 -29t-137 -85t-107.5 -157.5t-41 -232.5q0 -201 167 -350.5t470 -149.5q39 0 125 8v-61q-90 -8 -131 -8 q-324 0 -508.5 166t-184.5 395zM524 1331v103h103v-103h-103z" />
<glyph unicode="&#x118;" horiz-adv-x="1067" d="M143 0v1434h62v-1434h-62zM266 0v61h688v-61h-186l14 -25q-94 -49 -94 -96q0 -35 43 -35q27 0 62 23l32 -53q-49 -31 -94 -31q-47 0 -75.5 26.5t-28.5 69.5q0 70 78 121h-439zM266 770v61h553v-61h-553zM266 1372v62h688v-62h-688z" />
<glyph unicode="&#x119;" horiz-adv-x="1150" d="M102 553q0 152 49.5 267.5t126 177t156.5 91t156 29.5q213 0 336 -145.5t123 -370.5h-822q0 31 6 62h750q0 145 -106.5 269t-286.5 124q-70 0 -140.5 -29t-137 -85t-107.5 -157.5t-41 -232.5q0 -201 166 -349.5t471 -148.5q59 0 125 6v-61q-90 -8 -131 -8q-57 0 -107 6 l8 -16q-94 -49 -94 -97q0 -35 43 -35q27 0 62 23l32 -53q-49 -31 -94 -31q-47 0 -75.5 26.5t-28.5 69.5q0 70 77 121q-244 45 -380 198.5t-136 348.5z" />
<glyph unicode="&#x11a;" horiz-adv-x="1067" d="M143 0v1434h62v-1434h-62zM266 0v61h688v-61h-688zM266 770v61h553v-61h-553zM266 1372v62h688v-62h-688zM367 1790l49 37l133 -170l135 170l49 -37l-184 -236z" />
<glyph unicode="&#x11b;" horiz-adv-x="1150" d="M102 553q0 152 49.5 267.5t126 177t156.5 91t156 29.5q213 0 336 -145.5t123 -370.5h-822q0 31 6 62h750q0 145 -106.5 269t-286.5 124q-70 0 -140.5 -29t-137 -85t-107.5 -157.5t-41 -232.5q0 -201 167 -350.5t470 -149.5q39 0 125 8v-61q-90 -8 -131 -8 q-324 0 -508.5 166t-184.5 395zM412 1481l49 37l133 -170l135 170l49 -37l-184 -236z" />
<glyph unicode="&#x11c;" horiz-adv-x="1120" d="M113 717q0 188 74.5 350t236.5 268.5t383 106.5q72 0 178 -8v-64q-86 10 -178 10q-152 0 -275.5 -56t-199.5 -151.5t-117 -212t-41 -243.5t41 -244t117 -211t198.5 -150.5t276.5 -56.5h55v-61h-55q-168 0 -303 61.5t-219 165t-128 230.5t-44 266zM512 1591l182 236 l185 -236l-50 -37l-135 170l-133 -170zM924 -4v635h61v-631q-20 0 -61 -4z" />
<glyph unicode="&#x11d;" horiz-adv-x="1089" d="M102 553q0 227 183.5 393t511.5 166h34v-61h-34q-299 0 -466 -147.5t-167 -350.5t167 -351.5t468 -148.5h32v-61h-32q-330 0 -513.5 166t-183.5 395zM244 -461l41 45q127 -123 262 -123q152 0 249 124t97 292v1233q41 -4 61 -4v-1229q0 -193 -113.5 -335t-293.5 -142 q-160 0 -303 139zM422 1282l182 236l184 -236l-49 -37l-135 170l-133 -170z" />
<glyph unicode="&#x11e;" horiz-adv-x="1120" d="M113 717q0 188 74.5 350t236.5 268.5t383 106.5q72 0 178 -8v-64q-86 10 -178 10q-152 0 -275.5 -56t-199.5 -151.5t-117 -212t-41 -243.5t41 -244t117 -211t198.5 -150.5t276.5 -56.5h55v-61h-55q-168 0 -303 61.5t-219 165t-128 230.5t-44 266zM489 1784h62 q0 -55 39 -89t104.5 -34t104.5 34t39 89h61q0 -78 -57.5 -131.5t-147.5 -53.5t-147.5 53.5t-57.5 131.5zM924 -4v635h61v-631q-20 0 -61 -4z" />
<glyph unicode="&#x11f;" horiz-adv-x="1089" d="M102 553q0 227 183.5 393t511.5 166h34v-61h-34q-299 0 -466 -147.5t-167 -350.5t167 -351.5t468 -148.5h32v-61h-32q-330 0 -513.5 166t-183.5 395zM244 -461l41 45q127 -123 262 -123q152 0 249 124t97 292v1233q41 -4 61 -4v-1229q0 -193 -113.5 -335t-293.5 -142 q-160 0 -303 139zM422 1475h61q0 -55 39 -89t104.5 -34t104.5 33.5t39 89.5h61q0 -78 -57 -131.5t-147 -53.5t-147.5 53.5t-57.5 131.5z" />
<glyph unicode="&#x120;" horiz-adv-x="1120" d="M113 717q0 188 74.5 350t236.5 268.5t383 106.5q72 0 178 -8v-64q-86 10 -178 10q-152 0 -275.5 -56t-199.5 -151.5t-117 -212t-41 -243.5t41 -244t117 -211t198.5 -150.5t276.5 -56.5h55v-61h-55q-168 0 -303 61.5t-219 165t-128 230.5t-44 266zM643 1640v103h102v-103 h-102zM924 -4v635h61v-631q-20 0 -61 -4z" />
<glyph unicode="&#x121;" horiz-adv-x="1089" d="M102 553q0 227 183.5 393t511.5 166h34v-61h-34q-299 0 -466 -147.5t-167 -350.5t167 -351.5t468 -148.5h32v-61h-32q-330 0 -513.5 166t-183.5 395zM244 -461l41 45q127 -123 262 -123q152 0 249 124t97 292v1233q41 -4 61 -4v-1229q0 -193 -113.5 -335t-293.5 -142 q-160 0 -303 139zM582 1331v103h102v-103h-102z" />
<glyph unicode="&#x122;" horiz-adv-x="1120" d="M113 717q0 188 74.5 350t236.5 268.5t383 106.5q72 0 178 -8v-64q-86 10 -178 10q-152 0 -275.5 -56t-199.5 -151.5t-117 -212t-41 -243.5t41 -244t117 -211t198.5 -150.5t276.5 -56.5h55v-61h-55q-168 0 -303 61.5t-219 165t-128 230.5t-44 266zM645 -102h123v-144 q0 -119 -96 -153l-21 57q55 18 56 96v31h-62v113zM924 -4v635h61v-631q-20 0 -61 -4z" />
<glyph unicode="&#x123;" horiz-adv-x="1089" d="M102 553q0 227 183.5 393t511.5 166h34v-61h-34q-299 0 -466 -147.5t-167 -350.5t167 -351.5t468 -148.5h32v-61h-32q-330 0 -513.5 166t-183.5 395zM244 -461l41 45q127 -123 262 -123q152 0 249 124t97 292v1233q41 -4 61 -4v-1229q0 -193 -113.5 -335t-293.5 -142 q-160 0 -303 139zM571 1233v143q0 119 97 154l20 -57q-55 -18 -55 -97v-30h61v-113h-123z" />
<glyph unicode="&#x124;" horiz-adv-x="1118" d="M143 0v1434h62v-1434h-62zM266 770v61h647v603h62v-1434h-62v770h-647zM377 1591l182 236l184 -236l-49 -37l-135 170l-133 -170z" />
<glyph unicode="&#x125;" horiz-adv-x="1112" d="M-16 2013l182 236l184 -236l-49 -37l-135 170l-133 -170zM135 0v1829h62v-1829h-62zM258 977v70q133 72 281 71q143 0 258.5 -69.5t165.5 -204.5q27 -68 26 -144v-700h-61v696q0 66 -23 125q-43 117 -143 176.5t-225 59.5q-152 0 -279 -80z" />
<glyph unicode="&#x126;" horiz-adv-x="1118" d="M27 1098v61h1065v-61h-1065zM143 0v1036h62v-1036h-62zM143 1221v213h62v-213h-62zM266 770v61h647v205h62v-1036h-62v770h-647zM913 1221v213h62v-213h-62z" />
<glyph unicode="&#x127;" horiz-adv-x="1142" d="M-70 1434v61h533v-61h-533zM166 0v1372h61v-1372h-61zM166 1556v273h61v-273h-61zM289 977v70q133 72 280 71q143 0 259 -69.5t165 -204.5q27 -68 27 -144v-700h-62v696q0 66 -22 125q-43 117 -143.5 176.5t-225.5 59.5q-151 0 -278 -80z" />
<glyph unicode="&#x128;" d="M-68 1663q51 96 144 96q59 0 117 -45q39 -31 77 -31q61 0 97 72l49 -37q-53 -96 -146 -96q-57 0 -114 43q-43 33 -80 33q-61 0 -94 -72zM143 0v1434h62v-1434h-62z" />
<glyph unicode="&#x129;" d="M-68 1354q51 96 144 96q59 0 117 -45q39 -31 77 -31q61 0 97 72l49 -37q-53 -96 -146 -96q-57 0 -114 43q-43 33 -80 33q-61 0 -94 -72zM143 0v1098h62v-1098h-62z" />
<glyph unicode="&#x12a;" d="M-92 1661v61h532v-61h-532zM143 0v1434h62v-1434h-62z" />
<glyph unicode="&#x12b;" d="M-92 1352v61h532v-61h-532zM143 0v1098h62v-1098h-62z" />
<glyph unicode="&#x12c;" d="M-31 1784h62q0 -55 39 -89t104.5 -34t104 34t38.5 89h62q0 -78 -57.5 -131.5t-147.5 -53.5t-147.5 53.5t-57.5 131.5zM143 0v1434h62v-1434h-62z" />
<glyph unicode="&#x12d;" d="M-31 1475h62q0 -55 39 -89t104.5 -34t104 33.5t38.5 89.5h62q0 -78 -57.5 -131.5t-147.5 -53.5t-147.5 53.5t-57.5 131.5zM143 0v1098h62v-1098h-62z" />
<glyph unicode="&#x12e;" d="M45 -121q0 78 98 133v1422h62v-1434h-19l15 -25q-94 -49 -95 -96q0 -35 44 -35q27 0 61 23l33 -53q-49 -31 -94 -31q-47 0 -76 26.5t-29 69.5z" />
<glyph unicode="&#x12f;" d="M45 -121q0 78 98 133v1086h62v-1098h-19l15 -25q-94 -49 -95 -96q0 -35 44 -35q27 0 61 23l33 -53q-49 -31 -94 -31q-47 0 -76 26.5t-29 69.5z" />
<glyph unicode="&#x130;" d="M123 1640v103h102v-103h-102zM143 0v1434h62v-1434h-62z" />
<glyph unicode="&#x131;" d="M143 0v1098h62v-1098h-62z" />
<glyph unicode="&#x132;" horiz-adv-x="1288" d="M143 0v1434h62v-1434h-62zM440 119l43 47q135 -125 260 -125q123 0 210 79t118 195q20 74 21 160v959h61v-977q0 -203 -115.5 -340t-294.5 -137q-164 0 -303 139z" />
<glyph unicode="&#x133;" horiz-adv-x="696" d="M98 -475l54 29q53 -92 147 -93q82 0 137.5 71t55.5 194v1372h61v-1372q0 -150 -72.5 -238t-181.5 -88q-131 0 -201 125zM123 1331v103h102v-103h-102zM143 0v1098h62v-1098h-62zM471 1333v101h102v-101h-102z" />
<glyph unicode="&#x134;" horiz-adv-x="940" d="M92 119l43 47q135 -125 260 -125q123 0 210 79t118 195q20 74 20 160v959h62v-977q0 -203 -116 -340t-294 -137q-164 0 -303 139zM592 1591l182 236l184 -236l-49 -37l-135 170l-133 -170z" />
<glyph unicode="&#x135;" d="M-250 -475l53 29q53 -92 148 -93q82 0 137 71t55 194v1372h62v-1372q0 -150 -73 -238t-181 -88q-131 0 -201 125zM-8 1282l182 236l184 -236l-49 -37l-135 170l-133 -170z" />
<glyph unicode="&#x136;" horiz-adv-x="1179" d="M143 0v1434h62v-1434h-62zM266 657v84l768 715l41 -45zM365 666l45 41l667 -687l-45 -40zM549 -102h123v-144q0 -119 -97 -153l-20 57q55 18 55 96v31h-61v113z" />
<glyph unicode="&#x137;" horiz-adv-x="1167" d="M135 0v1829h62v-1829h-62zM258 475v78l770 567l37 -49zM381 487l51 39l633 -499l-37 -50zM502 -102h123v-144q0 -119 -97 -153l-20 57q55 18 55 96v31h-61v113z" />
<glyph unicode="&#x139;" horiz-adv-x="1009" d="M33 1604l309 223l37 -49l-309 -224zM143 0v1434h62v-1434h-62zM266 0v61h631v-61h-631z" />
<glyph unicode="&#x13a;" horiz-adv-x="307" d="M12 2025l310 224l36 -49l-309 -224zM123 0v1829h61v-1829h-61z" />
<glyph unicode="&#x13b;" horiz-adv-x="1009" d="M143 0v1434h62v-1434h-62zM266 0v61h631v-61h-631zM459 -102h123v-144q0 -119 -97 -153l-20 57q55 18 55 96v31h-61v113z" />
<glyph unicode="&#x13c;" horiz-adv-x="307" d="M92 -102h123v-144q0 -119 -96 -153l-21 57q55 18 56 96v31h-62v113zM123 0v1829h61v-1829h-61z" />
<glyph unicode="&#x13d;" horiz-adv-x="1009" d="M143 0v1434h62v-1434h-62zM266 0v61h631v-61h-631zM348 1321v113h123v-144q0 -119 -96 -153l-21 57q55 18 56 96v31h-62z" />
<glyph unicode="&#x13e;" horiz-adv-x="307" d="M-29 2212l49 37l134 -170l135 170l49 -37l-184 -236zM123 0v1829h61v-1829h-61z" />
<glyph unicode="&#x13f;" horiz-adv-x="1009" d="M143 0v1434h62v-1434h-62zM266 0v61h631v-61h-631zM453 727v102h102v-102h-102z" />
<glyph unicode="&#x140;" horiz-adv-x="307" d="M102 1966v102h103v-102h-103zM123 0v1829h61v-1829h-61z" />
<glyph unicode="&#x141;" horiz-adv-x="1009" d="M6 874l344 248l37 -49l-344 -248zM143 0v821l62 45v-805h692v-61h-754zM143 1049v385h62v-340z" />
<glyph unicode="&#x142;" horiz-adv-x="331" d="M-8 1034l350 252l37 -49l-350 -252zM135 0v985l62 45v-1030h-62zM135 1212v617h62v-572z" />
<glyph unicode="&#x143;" horiz-adv-x="1140" d="M143 0v1251l62 -104v-1147h-62zM143 1372v121l854 -1430v-122zM397 1604l310 223l36 -49l-309 -224zM936 289v1145h61v-1248z" />
<glyph unicode="&#x144;" horiz-adv-x="1114" d="M135 0v1098h62v-1098h-62zM258 977v70q131 72 285 71q143 0 259 -71.5t165 -202.5q25 -66 24 -144v-700h-61v700q0 164 -118 260.5t-269 96.5q-158 0 -285 -80zM379 1294l309 224l37 -50l-309 -223z" />
<glyph unicode="&#x145;" horiz-adv-x="1140" d="M143 0v1251l62 -104v-1147h-62zM143 1372v121l854 -1430v-122zM508 -102h123v-144q0 -119 -96 -153l-21 57q55 18 55 96v31h-61v113zM936 289v1145h61v-1248z" />
<glyph unicode="&#x146;" horiz-adv-x="1114" d="M135 0v1098h62v-1098h-62zM258 977v70q131 72 285 71q143 0 259 -71.5t165 -202.5q25 -66 24 -144v-700h-61v700q0 164 -118 260.5t-269 96.5q-158 0 -285 -80zM502 -102h123v-144q0 -119 -97 -153l-20 57q55 18 55 96v31h-61v113z" />
<glyph unicode="&#x147;" horiz-adv-x="1140" d="M143 0v1251l62 -104v-1147h-62zM143 1372v121l854 -1430v-122zM387 1790l49 37l133 -170l136 170l49 -37l-185 -236zM936 289v1145h61v-1248z" />
<glyph unicode="&#x148;" horiz-adv-x="1114" d="M135 0v1098h62v-1098h-62zM258 977v70q131 72 285 71q143 0 259 -71.5t165 -202.5q25 -66 24 -144v-700h-61v700q0 164 -118 260.5t-269 96.5q-158 0 -285 -80zM362 1481l50 37l133 -170l135 170l49 -37l-184 -236z" />
<glyph unicode="&#x149;" horiz-adv-x="1114" d="M104 1356v112h123v-143q0 -119 -96 -154l-20 58q55 18 55 96v31h-62zM135 0v1098h62v-1098h-62zM258 977v70q131 72 285 71q143 0 259 -71.5t165 -202.5q25 -66 24 -144v-700h-61v700q0 164 -118 260.5t-269 96.5q-158 0 -285 -80z" />
<glyph unicode="&#x14c;" horiz-adv-x="1675" d="M102 717q0 295 205 508t500 225v-61q-270 -12 -456.5 -207t-186.5 -465.5t186.5 -466t456.5 -207.5v-61q-295 12 -500 226t-205 509zM571 1661v61h533v-61h-533zM868 -18v61q270 12 456.5 207.5t186.5 466t-186 465t-457 207.5v61q295 -12 500 -225t205 -508t-205 -509 t-500 -226z" />
<glyph unicode="&#x14d;" horiz-adv-x="1343" d="M102 549q0 227 157 391t382 176v-61q-201 -12 -339 -157.5t-138 -348.5t138 -349.5t339 -158.5v-59q-225 12 -382 176t-157 391zM406 1352v61h532v-61h-532zM702 -18v59q201 12 339.5 158.5t138.5 349.5t-138.5 348t-339.5 158v61q225 -12 382 -176t157 -391t-157 -391 t-382 -176z" />
<glyph unicode="&#x14e;" horiz-adv-x="1675" d="M102 717q0 295 205 508t500 225v-61q-270 -12 -456.5 -207t-186.5 -465.5t186.5 -466t456.5 -207.5v-61q-295 12 -500 226t-205 509zM633 1784h61q0 -55 39 -89t104.5 -34t104.5 34t39 89h61q0 -78 -57 -131.5t-147 -53.5t-147.5 53.5t-57.5 131.5zM868 -18v61 q270 12 456.5 207.5t186.5 466t-186 465t-457 207.5v61q295 -12 500 -225t205 -508t-205 -509t-500 -226z" />
<glyph unicode="&#x14f;" horiz-adv-x="1343" d="M102 549q0 227 157 391t382 176v-61q-201 -12 -339 -157.5t-138 -348.5t138 -349.5t339 -158.5v-59q-225 12 -382 176t-157 391zM467 1475h61q0 -55 39 -89t104.5 -34t104.5 33.5t39 89.5h62q0 -78 -57.5 -131.5t-147.5 -53.5t-147.5 53.5t-57.5 131.5zM702 -18v59 q201 12 339.5 158.5t138.5 349.5t-138.5 348t-339.5 158v61q225 -12 382 -176t157 -391t-157 -391t-382 -176z" />
<glyph unicode="&#x150;" horiz-adv-x="1675" d="M102 717q0 295 205 508t500 225v-61q-270 -12 -456.5 -207t-186.5 -465.5t186.5 -466t456.5 -207.5v-61q-295 12 -500 226t-205 509zM590 1604l309 223l37 -49l-309 -224zM840 1604l309 223l37 -49l-309 -224zM868 -18v61q270 12 456.5 207.5t186.5 466t-186 465 t-457 207.5v61q295 -12 500 -225t205 -508t-205 -509t-500 -226z" />
<glyph unicode="&#x151;" horiz-adv-x="1343" d="M102 549q0 227 157 391t382 176v-61q-201 -12 -339 -157.5t-138 -348.5t138 -349.5t339 -158.5v-59q-225 12 -382 176t-157 391zM418 1294l309 224l37 -50l-309 -223zM668 1294l309 224l37 -50l-309 -223zM702 -18v59q201 12 339.5 158.5t138.5 349.5t-138.5 348 t-339.5 158v61q225 -12 382 -176t157 -391t-157 -391t-382 -176z" />
<glyph unicode="&#x152;" horiz-adv-x="2439" d="M102 717q0 295 205 508t500 225v-61q-270 -12 -456.5 -207t-186.5 -465.5t186.5 -466t456.5 -207.5v-61q-295 12 -500 226t-205 509zM868 -18v61q270 12 456.5 207.5t186.5 466t-186 465t-457 207.5v61q213 -8 386 -129t257 -311v424h62v-1434h-62v422 q-84 -190 -257 -311t-386 -129zM1634 0v61h688v-61h-688zM1634 770v61h553v-61h-553zM1634 1372v62h688v-62h-688z" />
<glyph unicode="&#x153;" horiz-adv-x="2228" d="M102 549q0 227 157 391t382 176v-61q-201 -12 -339 -157.5t-138 -348.5t138 -349.5t339 -158.5v-59q-225 12 -382 176t-157 391zM702 -18v59q201 12 339.5 158.5t138.5 349.5t-138.5 348t-339.5 158v61q168 -8 304.5 -109.5t197.5 -256.5q35 129 120 216t171 118.5 t172 31.5q213 0 336 -144.5t123 -369.5h-883q-2 -10 -2 -31v-18q0 -201 166 -349.5t471 -148.5q59 0 125 6v-61q-90 -8 -131 -8q-254 0 -425 106.5t-235 272.5q-55 -166 -194.5 -273.5t-315.5 -115.5zM1249 664h811q0 145 -106.5 268t-286.5 123q-145 0 -266 -101.5 t-152 -289.5z" />
<glyph unicode="&#x154;" horiz-adv-x="1118" d="M143 0v1434q20 0 62 4v-1438h-62zM266 483v62h35q299 0 466 123t167 292.5t-167 293.5t-466 124h-35v62h35q328 0 511 -142.5t183 -336.5q0 -135 -93 -252t-267 -177l391 -514l-49 -36l-406 532q-117 -31 -270 -31h-35zM283 1604l309 223l37 -49l-310 -224z" />
<glyph unicode="&#x155;" horiz-adv-x="614" d="M135 0v1098h62v-1098h-62zM166 1294l309 224l37 -50l-309 -223zM258 977v70q131 72 285 71v-61q-158 0 -285 -80z" />
<glyph unicode="&#x156;" horiz-adv-x="1118" d="M143 0v1434q20 0 62 4v-1438h-62zM266 483v62h35q299 0 466 123t167 292.5t-167 293.5t-466 124h-35v62h35q328 0 511 -142.5t183 -336.5q0 -135 -93 -252t-267 -177l391 -514l-49 -36l-406 532q-117 -31 -270 -31h-35zM522 -102h123v-144q0 -119 -96 -153l-21 57 q55 18 56 96v31h-62v113z" />
<glyph unicode="&#x157;" horiz-adv-x="614" d="M135 0v1098h62v-1098h-62zM256 -102h123v-144q0 -119 -96 -153l-21 57q55 18 55 96v31h-61v113zM258 977v70q131 72 285 71v-61q-158 0 -285 -80z" />
<glyph unicode="&#x158;" horiz-adv-x="1118" d="M143 0v1434q20 0 62 4v-1438h-62zM244 1790l49 37l133 -170l135 170l49 -37l-184 -236zM266 483v62h35q299 0 466 123t167 292.5t-167 293.5t-466 124h-35v62h35q328 0 511 -142.5t183 -336.5q0 -135 -93 -252t-267 -177l391 -514l-49 -36l-406 532q-117 -31 -270 -31 h-35z" />
<glyph unicode="&#x159;" horiz-adv-x="614" d="M135 0v1098h62v-1098h-62zM156 1481l49 37l133 -170l135 170l49 -37l-184 -236zM258 977v70q131 72 285 71v-61q-158 0 -285 -80z" />
<glyph unicode="&#x15a;" horiz-adv-x="1056" d="M113 1065q0 164 112.5 272.5t282.5 118.5v-61q-145 -10 -239.5 -101.5t-94.5 -228.5q0 -61 32 -113.5t91 -91.5t113.5 -64.5t128.5 -50.5q82 -29 143 -57.5t125.5 -73.5t100.5 -107.5t36 -137.5q0 -164 -112.5 -273.5t-282.5 -120.5v62q145 10 239.5 102t94.5 230 q0 61 -32 113.5t-91.5 91t-113.5 64.5t-128 50q-82 29 -143.5 57.5t-126 73.5t-100 107.5t-35.5 138.5zM121 217l57 25q84 -190 309 -205v-62q-270 15 -366 242zM356 1604l310 223l36 -49l-309 -224zM569 1395v61q125 -6 222.5 -66.5t144.5 -172.5l-57 -25q-85 189 -310 203 z" />
<glyph unicode="&#x15b;" horiz-adv-x="950" d="M102 795q0 135 127 226t334 91q121 0 225 -43l-24 -57q-100 39 -201 39q-180 0 -289.5 -73t-109.5 -183q0 -162 315 -215q176 -29 272.5 -100.5t96.5 -176.5q0 -135 -127 -226t-334 -91q-121 0 -225 43l24 57q100 -39 201 -39q180 0 289.5 73t109.5 183q0 162 -315 215 q-176 29 -272.5 101t-96.5 176zM315 1294l310 224l37 -50l-310 -223z" />
<glyph unicode="&#x15c;" horiz-adv-x="1056" d="M113 1065q0 164 112.5 272.5t282.5 118.5v-61q-145 -10 -239.5 -101.5t-94.5 -228.5q0 -61 32 -113.5t91 -91.5t113.5 -64.5t128.5 -50.5q82 -29 143 -57.5t125.5 -73.5t100.5 -107.5t36 -137.5q0 -164 -112.5 -273.5t-282.5 -120.5v62q145 10 239.5 102t94.5 230 q0 61 -32 113.5t-91.5 91t-113.5 64.5t-128 50q-82 29 -143.5 57.5t-126 73.5t-100 107.5t-35.5 138.5zM121 217l57 25q84 -190 309 -205v-62q-270 15 -366 242zM346 1591l182 236l185 -236l-49 -37l-136 170l-133 -170zM569 1395v61q125 -6 222.5 -66.5t144.5 -172.5 l-57 -25q-85 189 -310 203z" />
<glyph unicode="&#x15d;" horiz-adv-x="950" d="M102 795q0 135 127 226t334 91q121 0 225 -43l-24 -57q-100 39 -201 39q-180 0 -289.5 -73t-109.5 -183q0 -162 315 -215q176 -29 272.5 -100.5t96.5 -176.5q0 -135 -127 -226t-334 -91q-121 0 -225 43l24 57q100 -39 201 -39q180 0 289.5 73t109.5 183q0 162 -315 215 q-176 29 -272.5 101t-96.5 176zM293 1282l182 236l184 -236l-49 -37l-135 170l-133 -170z" />
<glyph unicode="&#x15e;" horiz-adv-x="1056" d="M113 1065q0 164 112.5 272.5t282.5 118.5v-61q-145 -10 -239.5 -101.5t-94.5 -228.5q0 -61 32 -113.5t91 -91.5t113.5 -64.5t128.5 -50.5q82 -29 143 -57.5t125.5 -73.5t100.5 -107.5t36 -137.5q0 -160 -108.5 -268.5t-274.5 -123.5l-6 -20q74 -14 74 -84 q0 -51 -37 -76.5t-88 -25.5q-35 0 -66 12l21 57q18 -8 47 -8q61 0 61 41q0 20 -65 21h-27l35 143h8q156 0 260.5 93t104.5 239q0 61 -32 113.5t-91.5 91t-113.5 64.5t-128 50q-82 29 -143.5 57.5t-126 73.5t-100 107.5t-35.5 138.5zM121 217l57 25q74 -170 271 -201l-17 -59 q-227 34 -311 235zM569 1395v61q125 -6 222.5 -66.5t144.5 -172.5l-57 -25q-85 189 -310 203z" />
<glyph unicode="&#x15f;" horiz-adv-x="950" d="M102 795q0 135 127 226t334 91q121 0 225 -43l-24 -57q-100 39 -201 39q-180 0 -289.5 -73t-109.5 -183q0 -162 315 -215q176 -29 272.5 -100.5t96.5 -176.5q0 -113 -91 -198t-247 -109l-12 -39q74 -14 73 -84q0 -51 -36.5 -76.5t-88.5 -25.5q-35 0 -65 12l20 57 q18 -8 48 -8q61 0 61 41q0 20 -66 21h-26l24 94q-23 -2 -55 -2q-121 0 -225 43l24 57q100 -39 201 -39q180 0 289.5 73t109.5 183q0 162 -315 215q-176 29 -272.5 101t-96.5 176z" />
<glyph unicode="&#x160;" horiz-adv-x="1056" d="M113 1065q0 164 112.5 272.5t282.5 118.5v-61q-145 -10 -239.5 -101.5t-94.5 -228.5q0 -61 32 -113.5t91 -91.5t113.5 -64.5t128.5 -50.5q82 -29 143 -57.5t125.5 -73.5t100.5 -107.5t36 -137.5q0 -164 -112.5 -273.5t-282.5 -120.5v62q145 10 239.5 102t94.5 230 q0 61 -32 113.5t-91.5 91t-113.5 64.5t-128 50q-82 29 -143.5 57.5t-126 73.5t-100 107.5t-35.5 138.5zM121 217l57 25q84 -190 309 -205v-62q-270 15 -366 242zM346 1790l49 37l133 -170l136 170l49 -37l-185 -236zM569 1395v61q125 -6 222.5 -66.5t144.5 -172.5l-57 -25 q-85 189 -310 203z" />
<glyph unicode="&#x161;" horiz-adv-x="950" d="M102 795q0 135 127 226t334 91q121 0 225 -43l-24 -57q-100 39 -201 39q-180 0 -289.5 -73t-109.5 -183q0 -162 315 -215q176 -29 272.5 -100.5t96.5 -176.5q0 -135 -127 -226t-334 -91q-121 0 -225 43l24 57q100 -39 201 -39q180 0 289.5 73t109.5 183q0 162 -315 215 q-176 29 -272.5 101t-96.5 176zM293 1481l49 37l133 -170l135 170l49 -37l-184 -236z" />
<glyph unicode="&#x162;" horiz-adv-x="1159" d="M102 1372v62h955v-62h-955zM518 -102h123v-144q0 -119 -96 -153l-21 57q55 18 56 96v31h-62v113zM549 0v1311h61v-1311h-61z" />
<glyph unicode="&#x163;" horiz-adv-x="606" d="M43 1036v62h92v356h62v-1069q0 -160 87 -243t226 -83q29 0 47 2l8 -61q-18 -2 -55 -2q-166 0 -270.5 98.5t-104.5 288.5v651h-92zM258 1036v62h262v-62h-262zM285 -102h123v-144q0 -119 -97 -153l-20 57q55 18 55 96v31h-61v113z" />
<glyph unicode="&#x164;" horiz-adv-x="1159" d="M102 1372v62h955v-62h-955zM397 1790l49 37l134 -170l135 170l49 -37l-184 -236zM549 0v1311h61v-1311h-61z" />
<glyph unicode="&#x165;" horiz-adv-x="606" d="M43 1036v62h92v356h62v-1069q0 -160 87 -243t226 -83q29 0 47 2l8 -61q-18 -2 -55 -2q-166 0 -270.5 98.5t-104.5 288.5v651h-92zM258 1036v62h262v-62h-262zM340 1423v113h123v-143q0 -119 -96 -154l-21 57q55 18 55 97v30h-61z" />
<glyph unicode="&#x166;" horiz-adv-x="1159" d="M102 1372v62h955v-62h-955zM313 913v62h533v-62h-533zM549 0v852h61v-852h-61zM549 1036v275h61v-275h-61z" />
<glyph unicode="&#x167;" horiz-adv-x="636" d="M-70 727v61h533v-61h-533zM74 1036v62h92v356h61v-604h-61v186h-92zM166 385v281h61v-281q0 -160 87 -243t227 -83q29 0 47 2l8 -61q-18 -2 -55 -2q-166 0 -270.5 98.5t-104.5 288.5zM289 1036v62h262v-62h-262z" />
<glyph unicode="&#x168;" horiz-adv-x="1142" d="M135 395v1039h62v-1039q0 -147 99 -245.5t245 -108.5v-61q-170 10 -288 125.5t-118 289.5zM330 1663q51 96 143 96q59 0 117 -45q39 -31 78 -31q61 0 96 72l49 -37q-53 -96 -145 -96q-57 0 -115 43q-43 33 -80 33q-61 0 -94 -72zM602 -20v61q143 10 243.5 108.5 t100.5 245.5v1039h62v-1039q0 -174 -118 -289.5t-288 -125.5z" />
<glyph unicode="&#x169;" horiz-adv-x="1101" d="M123 395v703h61v-703q0 -147 96.5 -245.5t239.5 -108.5v-61q-168 10 -282.5 125.5t-114.5 289.5zM317 1354q51 96 144 96q59 0 117 -45q41 -31 77 -31q61 0 97 72l49 -37q-53 -96 -146 -96q-57 0 -114 43q-43 33 -80 33q-61 0 -94 -72zM582 -20v61q143 10 239.5 108.5 t96.5 245.5v703h61v-703q0 -174 -114.5 -289.5t-282.5 -125.5z" />
<glyph unicode="&#x16a;" horiz-adv-x="1142" d="M135 395v1039h62v-1039q0 -147 99 -245.5t245 -108.5v-61q-170 10 -288 125.5t-118 289.5zM305 1661v61h533v-61h-533zM602 -20v61q143 10 243.5 108.5t100.5 245.5v1039h62v-1039q0 -174 -118 -289.5t-288 -125.5z" />
<glyph unicode="&#x16b;" horiz-adv-x="1101" d="M123 395v703h61v-703q0 -147 96.5 -245.5t239.5 -108.5v-61q-168 10 -282.5 125.5t-114.5 289.5zM293 1352v61h532v-61h-532zM582 -20v61q143 10 239.5 108.5t96.5 245.5v703h61v-703q0 -174 -114.5 -289.5t-282.5 -125.5z" />
<glyph unicode="&#x16c;" horiz-adv-x="1142" d="M135 395v1039h62v-1039q0 -147 99 -245.5t245 -108.5v-61q-170 10 -288 125.5t-118 289.5zM367 1784h61q0 -55 39 -89t104.5 -34t104.5 34t39 89h61q0 -78 -57 -131.5t-147.5 -53.5t-147.5 53.5t-57 131.5zM602 -20v61q143 10 243.5 108.5t100.5 245.5v1039h62v-1039 q0 -174 -118 -289.5t-288 -125.5z" />
<glyph unicode="&#x16d;" horiz-adv-x="1101" d="M123 395v703h61v-703q0 -147 96.5 -245.5t239.5 -108.5v-61q-168 10 -282.5 125.5t-114.5 289.5zM354 1475h62q0 -55 39 -89t104.5 -34t104 33.5t38.5 89.5h62q0 -78 -57.5 -131.5t-147.5 -53.5t-147.5 53.5t-57.5 131.5zM582 -20v61q143 10 239.5 108.5t96.5 245.5v703 h61v-703q0 -174 -114.5 -289.5t-282.5 -125.5z" />
<glyph unicode="&#x16e;" horiz-adv-x="1142" d="M135 395v1039h62v-1039q0 -147 99 -245.5t245 -108.5v-61q-170 10 -288 125.5t-118 289.5zM434 1691.5q0 49.5 30 86.5t77 47v-66q-45 -20 -45 -67q0 -49 45 -70v-63q-47 10 -77 46.5t-30 86zM602 -20v61q143 10 243.5 108.5t100.5 245.5v1039h62v-1039 q0 -174 -118 -289.5t-288 -125.5zM602 1559v63q45 20 45 70q0 47 -45 67v66q45 -10 76 -47t31 -86.5t-31 -86t-76 -46.5z" />
<glyph unicode="&#x16f;" horiz-adv-x="1101" d="M123 395v703h61v-703q0 -147 96.5 -245.5t239.5 -108.5v-61q-168 10 -282.5 125.5t-114.5 289.5zM422 1382.5q0 49.5 29.5 86t76.5 47.5v-66q-45 -20 -45 -68q0 -49 45 -69v-64q-47 10 -76.5 47t-29.5 86.5zM582 -20v61q143 10 239.5 108.5t96.5 245.5v703h61v-703 q0 -174 -114.5 -289.5t-282.5 -125.5zM590 1249v64q45 20 45 69q0 47 -45 68v66q45 -10 75.5 -47t30.5 -86.5t-30.5 -86.5t-75.5 -47z" />
<glyph unicode="&#x170;" horiz-adv-x="1142" d="M135 395v1039h62v-1039q0 -147 99 -245.5t245 -108.5v-61q-170 10 -288 125.5t-118 289.5zM358 1604l310 223l37 -49l-310 -224zM602 -20v61q143 10 243.5 108.5t100.5 245.5v1039h62v-1039q0 -174 -118 -289.5t-288 -125.5zM608 1604l310 223l36 -49l-309 -224z" />
<glyph unicode="&#x171;" horiz-adv-x="1101" d="M123 395v703h61v-703q0 -147 96.5 -245.5t239.5 -108.5v-61q-168 10 -282.5 125.5t-114.5 289.5zM315 1294l310 224l37 -50l-310 -223zM565 1294l309 224l37 -50l-309 -223zM582 -20v61q143 10 239.5 108.5t96.5 245.5v703h61v-703q0 -174 -114.5 -289.5t-282.5 -125.5z " />
<glyph unicode="&#x172;" horiz-adv-x="1142" d="M135 395v1039h62v-1039q0 -147 99 -245.5t245 -108.5v-61q-170 10 -288 125.5t-118 289.5zM473 -195q0 84 127 150l29 -53q-94 -49 -94 -97q0 -35 43 -34q29 0 61 22l33 -53q-49 -31 -94 -31q-47 0 -76 26.5t-29 69.5zM602 -20v61q143 10 243.5 108.5t100.5 245.5v1039 h62v-1039q0 -174 -118 -289.5t-288 -125.5z" />
<glyph unicode="&#x173;" horiz-adv-x="1101" d="M123 395v703h61v-703q0 -147 96.5 -245.5t239.5 -108.5v-61q-168 10 -282.5 125.5t-114.5 289.5zM453 -195q0 84 127 150l28 -53q-94 -49 -94 -97q0 -35 43 -34q29 0 61 22l33 -53q-49 -31 -94 -31q-47 0 -75.5 26.5t-28.5 69.5zM582 -20v61q143 10 239.5 108.5 t96.5 245.5v703h61v-703q0 -174 -114.5 -289.5t-282.5 -125.5z" />
<glyph unicode="&#x174;" horiz-adv-x="1583" d="M102 1425l58 17l407 -1395l-30 -108zM567 258l162 553l31 -106l-162 -551zM608 1591l183 236l184 -236l-49 -37l-135 170l-134 -170zM612 1425l58 17l121 -418l122 418l58 -17l-150 -507l256 -871l-30 -108zM1077 258l346 1184l58 -17l-373 -1271z" />
<glyph unicode="&#x175;" horiz-adv-x="1593" d="M102 1087l58 21l411 -1065l-32 -84zM571 211l160 414l33 -84l-160 -414zM616 1282l183 236l184 -236l-49 -37l-135 170l-133 -170zM618 1087l58 21l121 -313l121 313l57 -21l-146 -376l258 -668l-32 -84zM1087 211l347 897l57 -21l-371 -960z" />
<glyph unicode="&#x176;" horiz-adv-x="1142" d="M102 1417l54 33l446 -723v-727h-61v707zM389 1591l182 236l185 -236l-49 -37l-136 170l-133 -170zM608 836l379 614l53 -33l-395 -641z" />
<glyph unicode="&#x177;" horiz-adv-x="1110" d="M123 381v717h61v-721q0 -160 115 -258.5t268.5 -98.5t284.5 107v-80q-131 -88 -283 -88q-168 0 -307 113.5t-139 308.5zM264 -461l41 45q127 -123 262 -123q152 0 249 124t97 292v1221h62v-1221q0 -193 -113.5 -335t-294.5 -142q-160 0 -303 139zM367 1282l182 236 l184 -236l-49 -37l-135 170l-133 -170z" />
<glyph unicode="&#x178;" horiz-adv-x="1142" d="M102 1417l54 33l446 -723v-727h-61v707zM383 1640v103h102v-103h-102zM608 836l379 614l53 -33l-395 -641zM659 1640v103h103v-103h-103z" />
<glyph unicode="&#x179;" horiz-adv-x="1126" d="M113 0l831 1434h70l-832 -1434h-69zM119 1372v62h753l-36 -62h-717zM254 0l37 61h717v-61h-754zM391 1604l309 223l37 -49l-309 -224z" />
<glyph unicode="&#x17a;" horiz-adv-x="1093" d="M94 0l826 1098h79l-825 -1098h-80zM102 1036v62h740l-47 -62h-693zM252 0l47 61h692v-61h-739zM395 1294l310 224l36 -50l-309 -223z" />
<glyph unicode="&#x17b;" horiz-adv-x="1126" d="M106 0l832 1434h70l-832 -1434h-70zM113 1372v62h753l-37 -62h-716zM248 0l37 61h716v-61h-753zM506 1640v103h102v-103h-102z" />
<glyph unicode="&#x17c;" horiz-adv-x="1093" d="M94 0l826 1098h79l-825 -1098h-80zM102 1036v62h740l-47 -62h-693zM252 0l47 61h692v-61h-739zM496 1331v103h102v-103h-102z" />
<glyph unicode="&#x17d;" horiz-adv-x="1126" d="M106 0l832 1434h70l-832 -1434h-70zM113 1372v62h753l-37 -62h-716zM248 0l37 61h716v-61h-753zM375 1790l49 37l133 -170l135 170l49 -37l-184 -236z" />
<glyph unicode="&#x17e;" horiz-adv-x="1093" d="M94 0l826 1098h79l-825 -1098h-80zM102 1036v62h740l-47 -62h-693zM252 0l47 61h692v-61h-739zM365 1481l49 37l133 -170l135 170l49 -37l-184 -236z" />
<glyph unicode="&#x17f;" horiz-adv-x="307" d="M123 0v1251q0 131 95 218t218 87v-61q-98 0 -175 -69.5t-77 -174.5v-1251h-61z" />
<glyph unicode="&#x192;" horiz-adv-x="618" d="M-53 -416q139 0 235.5 94.5t96.5 262.5v952h-236v61h236v361q0 193 114.5 303.5t278.5 110.5v-62q-139 0 -235.5 -94t-96.5 -262v-357h235v-61h-235v-956q0 -193 -114.5 -303.5t-278.5 -110.5v61z" />
<glyph unicode="&#x1fc;" horiz-adv-x="1531" d="M102 14l711 1420h606v-62h-569l-485 -966h387v-62h-418l-178 -358zM797 1604l309 223l37 -49l-309 -224zM813 0v1163l61 123v-455h410v-61h-410v-709h545v-61h-606z" />
<glyph unicode="&#x1fd;" horiz-adv-x="1892" d="M113 383q0 178 127 288.5t307 110.5q164 0 297 -92v-74q-123 104 -297 105q-156 0 -264.5 -93t-108.5 -245t109.5 -247t263.5 -95q174 0 297 94v-76q-123 -80 -297 -79q-178 0 -306 112.5t-128 290.5zM221 967q158 152 377 151q127 0 228.5 -77.5t127.5 -221.5 q66 152 191 225.5t248 73.5q209 0 313 -142t104 -374h-778q0 20 8 62h705q0 152 -88 272.5t-264 120.5q-143 0 -265 -102.5t-153 -290.5q-8 -49 -8 -111v-18q6 -197 163.5 -339.5t452.5 -142.5q39 0 125 8v-61q-90 -8 -131 -8q-225 0 -381 85t-229 224v-301h-62v696 q0 188 -93 274.5t-214 86.5q-197 0 -332 -131zM834 1294l309 224l37 -50l-310 -223z" />
<glyph unicode="&#x1fe;" horiz-adv-x="1675" d="M102 27l193 192q-193 213 -193 498q0 295 205 509t500 226v-61q-270 -12 -456.5 -208t-186.5 -466q0 -260 174 -455l952 952q-180 164 -422 177v61q262 -8 465 -195l195 195l45 -45l-195 -195q195 -211 195 -495q0 -295 -205 -509t-500 -226v61q270 12 456.5 207.5 t186.5 466.5q0 260 -176 452l-952 -952q182 -166 424 -174v-61q-266 8 -467 192l-193 -192zM666 1604l309 223l37 -49l-310 -224z" />
<glyph unicode="&#x1ff;" horiz-adv-x="1343" d="M102 23l146 145q-145 166 -146 381q0 227 157 391t382 176v-61q-201 -12 -339 -157.5t-138 -348.5q0 -195 127 -338l717 719q-131 117 -306 125v61q195 -8 347 -143l147 147l45 -45l-147 -147q147 -160 147 -379q0 -227 -156.5 -391t-382.5 -176v59q201 12 339.5 158.5 t138.5 349.5q0 188 -127 336l-717 -719q129 -113 305 -125v-59q-203 10 -348 141l-146 -146zM506 1294l309 224l37 -50l-309 -223z" />
<glyph unicode="&#x218;" horiz-adv-x="1056" d="M113 1065q0 164 112.5 272.5t282.5 118.5v-61q-145 -10 -239.5 -101.5t-94.5 -228.5q0 -61 32 -113.5t91 -91.5t113.5 -64.5t128.5 -50.5q82 -29 143 -57.5t125.5 -73.5t100.5 -107.5t36 -137.5q0 -164 -112.5 -273.5t-282.5 -120.5v62q145 10 239.5 102t94.5 230 q0 61 -32 113.5t-91.5 91t-113.5 64.5t-128 50q-82 29 -143.5 57.5t-126 73.5t-100 107.5t-35.5 138.5zM121 217l57 25q84 -190 309 -205v-62q-270 15 -366 242zM467 -102h123v-144q0 -119 -96 -153l-21 57q55 18 55 96v31h-61v113zM569 1395v61q125 -6 222.5 -66.5 t144.5 -172.5l-57 -25q-85 189 -310 203z" />
<glyph unicode="&#x219;" horiz-adv-x="950" d="M102 795q0 135 127 226t334 91q121 0 225 -43l-24 -57q-100 39 -201 39q-180 0 -289.5 -73t-109.5 -183q0 -162 315 -215q176 -29 272.5 -100.5t96.5 -176.5q0 -135 -127 -226t-334 -91q-121 0 -225 43l24 57q100 -39 201 -39q180 0 289.5 73t109.5 183q0 162 -315 215 q-176 29 -272.5 101t-96.5 176zM416 -102h123v-144q0 -119 -97 -153l-20 57q55 18 55 96v31h-61v113z" />
<glyph unicode="&#x259;" horiz-adv-x="1150" d="M102 528v31h824q4 -31 0 -61h-760q6 -195 107.5 -326t293.5 -131q68 0 137.5 28.5t135 85t106.5 155t41 218.5q0 223 -118.5 376t-321.5 153q-162 0 -283 -103l-41 45q137 119 324 119q231 0 366.5 -170t135.5 -420q0 -137 -47.5 -247.5t-122 -173t-155.5 -95t-157 -32.5 q-229 0 -347 158.5t-118 389.5z" />
<glyph unicode="&#x2c6;" horiz-adv-x="653" d="M143 1282l183 236l184 -236l-49 -37l-135 170l-133 -170z" />
<glyph unicode="&#x2c7;" horiz-adv-x="653" d="M143 1481l50 37l133 -170l135 170l49 -37l-184 -236z" />
<glyph unicode="&#x2d8;" horiz-adv-x="696" d="M143 1475h62q0 -55 39 -89t104.5 -34t104.5 33.5t39 89.5h61q0 -78 -57.5 -131.5t-147.5 -53.5t-147.5 53.5t-57.5 131.5z" />
<glyph unicode="&#x2d9;" horiz-adv-x="389" d="M143 1331v103h103v-103h-103z" />
<glyph unicode="&#x2da;" horiz-adv-x="622" d="M174 1382.5q0 49.5 29.5 86t77.5 47.5v-66q-45 -20 -45 -68q0 -49 45 -69v-64q-47 10 -77 47t-30 86.5zM342 1249v64q45 20 45 69q0 47 -45 68v66q45 -10 76 -47t31 -86.5t-31 -86.5t-76 -47z" />
<glyph unicode="&#x2db;" horiz-adv-x="641" d="M268 -158q0 84 127 150l29 -53q-94 -49 -94 -97q0 -35 43 -35q29 0 61 23l33 -53q-49 -31 -94 -31q-47 0 -76 26.5t-29 69.5z" />
<glyph unicode="&#x2dc;" horiz-adv-x="733" d="M125 1354q51 96 143 96q59 0 117 -45q41 -31 78 -31q61 0 96 72l49 -37q-53 -96 -145 -96q-57 0 -115 43q-43 33 -80 33q-61 0 -94 -72z" />
<glyph unicode="&#x2dd;" horiz-adv-x="841" d="M143 1294l310 224l36 -50l-309 -223zM393 1294l309 224l37 -50l-309 -223z" />
<glyph unicode="&#x1e80;" horiz-adv-x="1583" d="M102 1425l58 17l407 -1395l-30 -108zM567 258l162 553l31 -106l-162 -551zM612 1425l58 17l121 -418l122 418l58 -17l-150 -507l256 -871l-30 -108zM618 1778l37 49l310 -223l-37 -50zM1077 258l346 1184l58 -17l-373 -1271z" />
<glyph unicode="&#x1e81;" horiz-adv-x="1593" d="M102 1087l58 21l411 -1065l-32 -84zM571 211l160 414l33 -84l-160 -414zM618 1087l58 21l121 -313l121 313l57 -21l-146 -376l258 -668l-32 -84zM627 1468l37 50l309 -224l-37 -49zM1087 211l347 897l57 -21l-371 -960z" />
<glyph unicode="&#x1e82;" horiz-adv-x="1583" d="M102 1425l58 17l407 -1395l-30 -108zM567 258l162 553l31 -106l-162 -551zM612 1425l58 17l121 -418l122 418l58 -17l-150 -507l256 -871l-30 -108zM618 1604l310 223l37 -49l-310 -224zM1077 258l346 1184l58 -17l-373 -1271z" />
<glyph unicode="&#x1e83;" horiz-adv-x="1593" d="M102 1087l58 21l411 -1065l-32 -84zM571 211l160 414l33 -84l-160 -414zM618 1087l58 21l121 -313l121 313l57 -21l-146 -376l258 -668l-32 -84zM627 1294l309 224l37 -50l-309 -223zM1087 211l347 897l57 -21l-371 -960z" />
<glyph unicode="&#x1e84;" horiz-adv-x="1583" d="M102 1425l58 17l407 -1395l-30 -108zM567 258l162 553l31 -106l-162 -551zM602 1640v103h103v-103h-103zM612 1425l58 17l121 -418l122 418l58 -17l-150 -507l256 -871l-30 -108zM879 1640v103h102v-103h-102zM1077 258l346 1184l58 -17l-373 -1271z" />
<glyph unicode="&#x1e85;" horiz-adv-x="1593" d="M102 1087l58 21l411 -1065l-32 -84zM571 211l160 414l33 -84l-160 -414zM610 1331v103h103v-103h-103zM618 1087l58 21l121 -313l121 313l57 -21l-146 -376l258 -668l-32 -84zM887 1331v103h102v-103h-102zM1087 211l347 897l57 -21l-371 -960z" />
<glyph unicode="&#x1ef2;" horiz-adv-x="1142" d="M102 1417l54 33l446 -723v-727h-61v707zM399 1778l37 49l309 -223l-36 -50zM608 836l379 614l53 -33l-395 -641z" />
<glyph unicode="&#x1ef3;" horiz-adv-x="1110" d="M123 381v717h61v-721q0 -160 115 -258.5t268.5 -98.5t284.5 107v-80q-131 -88 -283 -88q-168 0 -307 113.5t-139 308.5zM264 -461l41 45q127 -123 262 -123q152 0 249 124t97 292v1221h62v-1221q0 -193 -113.5 -335t-294.5 -142q-160 0 -303 139zM377 1468l37 50 l309 -224l-37 -49z" />
<glyph unicode="&#x2000;" horiz-adv-x="1124" />
<glyph unicode="&#x2001;" horiz-adv-x="2248" />
<glyph unicode="&#x2002;" horiz-adv-x="1124" />
<glyph unicode="&#x2003;" horiz-adv-x="2248" />
<glyph unicode="&#x2004;" horiz-adv-x="749" />
<glyph unicode="&#x2005;" horiz-adv-x="561" />
<glyph unicode="&#x2006;" horiz-adv-x="374" />
<glyph unicode="&#x2007;" horiz-adv-x="374" />
<glyph unicode="&#x2008;" horiz-adv-x="280" />
<glyph unicode="&#x2009;" horiz-adv-x="448" />
<glyph unicode="&#x200a;" horiz-adv-x="124" />
<glyph unicode="&#x2010;" horiz-adv-x="737" d="M102 602v62h533v-62h-533z" />
<glyph unicode="&#x2011;" horiz-adv-x="737" d="M102 602v62h533v-62h-533z" />
<glyph unicode="&#x2012;" horiz-adv-x="737" d="M102 602v62h533v-62h-533z" />
<glyph unicode="&#x2013;" horiz-adv-x="1468" d="M102 602v62h1264v-62h-1264z" />
<glyph unicode="&#x2014;" horiz-adv-x="1937" d="M102 602v62h1733v-62h-1733z" />
<glyph unicode="&#x2018;" horiz-adv-x="376" d="M127 1073v174q0 145 96 180l21 -57q-55 -18 -56 -123v-51h62v-123h-123z" />
<glyph unicode="&#x2019;" horiz-adv-x="376" d="M127 1311v123h123v-174q0 -145 -96 -181l-21 58q55 18 55 123v51h-61z" />
<glyph unicode="&#x201a;" horiz-adv-x="376" d="M127 143v123h123v-174q0 -145 -96 -180l-21 57q55 18 55 123v51h-61z" />
<glyph unicode="&#x201c;" horiz-adv-x="622" d="M127 1073v174q0 145 96 180l21 -57q-55 -18 -56 -123v-51h62v-123h-123zM373 1073v174q0 145 96 180l20 -57q-55 -18 -55 -123v-51h62v-123h-123z" />
<glyph unicode="&#x201d;" horiz-adv-x="622" d="M127 1311v123h123v-174q0 -145 -96 -181l-21 58q55 18 55 123v51h-61zM373 1311v123h123v-174q0 -145 -97 -181l-20 58q55 18 55 123v51h-61z" />
<glyph unicode="&#x201e;" horiz-adv-x="622" d="M127 143v123h123v-174q0 -145 -96 -180l-21 57q55 18 55 123v51h-61zM373 143v123h123v-174q0 -145 -97 -180l-20 57q55 18 55 123v51h-61z" />
<glyph unicode="&#x2020;" horiz-adv-x="1132" d="M113 1403v61h419v365h62v-365h426v-61h-426v-1649h-62v1649h-419z" />
<glyph unicode="&#x2021;" horiz-adv-x="1132" d="M113 119v61h419v1223h-419v61h419v365h62v-365h426v-61h-426v-1223h426v-61h-426v-365h-62v365h-419z" />
<glyph unicode="&#x2022;" horiz-adv-x="532" d="M102 614.5q0 67.5 48.5 115.5t116 48t115.5 -48t48 -115.5t-48 -115.5t-115.5 -48t-116 48t-48.5 115.5z" />
<glyph unicode="&#x2026;" horiz-adv-x="1253" d="M147 0v123h123v-123h-123zM565 0v123h123v-123h-123zM983 0v123h123v-123h-123z" />
<glyph unicode="&#x202f;" horiz-adv-x="448" />
<glyph unicode="&#x2030;" horiz-adv-x="1435" d="M123 14l739 1434l53 -29l-739 -1433zM123 1275.5q0 61.5 39 108t98 56.5v-62q-76 -25 -76 -102q0 -37 20.5 -64.5t55.5 -37.5v-64q-59 10 -98 57t-39 108.5zM322 1110v64q33 10 54 37.5t21 64.5t-21.5 64.5t-53.5 37.5v62q59 -10 98 -56.5t39 -108t-39 -108.5t-98 -57z M580 155.5q0 61.5 38.5 107.5t98.5 56v-61q-76 -25 -76 -102q0 -37 20.5 -65t55.5 -38v-61q-59 10 -98 56t-39 107.5zM778 -8v61q33 10 54.5 38t21.5 65t-21.5 64.5t-54.5 37.5v61q59 -10 98 -56t39 -107.5t-39 -107.5t-98 -56zM997 155.5q0 61.5 39 107.5t99 56v-61 q-76 -25 -76 -102q0 -37 20.5 -65t55.5 -38v-61q-59 10 -98.5 56t-39.5 107.5zM1196 -8v61q33 10 54.5 38t21.5 65t-21.5 64.5t-54.5 37.5v61q59 -10 98 -56t39 -107.5t-39 -107.5t-98 -56z" />
<glyph unicode="&#x2039;" horiz-adv-x="587" d="M102 553l347 270l36 -49l-280 -221l280 -219l-36 -49z" />
<glyph unicode="&#x203a;" horiz-adv-x="587" d="M102 334l281 219l-281 221l37 49l346 -270l-346 -268z" />
<glyph unicode="&#x205f;" horiz-adv-x="561" />
<glyph unicode="&#x20ac;" horiz-adv-x="1120" d="M102 592v61h697v-61h-697zM102 772v62h697v-62h-697zM190 530h66q51 -207 209 -341t401 -134q80 0 148 6l4 -61q-68 -6 -152 -6q-272 0 -446.5 151.5t-229.5 384.5zM190 895q51 236 226.5 391.5t451.5 155.5q82 0 150 -6l-4 -62q-68 6 -146 6q-248 0 -405.5 -137 t-208.5 -348h-64z" />
<glyph unicode="&#x2117;" horiz-adv-x="1740" d="M123 717q0 301 209 517t508 228v-61q-274 -12 -465 -210t-191 -474.5t190.5 -475t465.5 -210.5v-60q-299 12 -508 228.5t-209 517.5zM688 328v788q20 2 62 2v-790h-62zM811 616v60q123 8 193.5 63.5t70.5 126.5q0 70 -70.5 125.5t-193.5 63.5v61q158 -12 242 -82.5 t84 -167t-84 -167.5t-242 -83zM901 -29v60q274 12 464.5 210.5t190.5 475t-190 474.5t-465 210v61q299 -12 508 -228t209 -517t-209 -517.5t-508 -228.5z" />
<glyph unicode="&#x2122;" horiz-adv-x="1263" d="M123 1372v62h469v-62h-469zM324 963v348h61v-348h-61zM657 963v260l62 -115v-145h-62zM657 1352v131l209 -389l86 159v-131l-86 -159zM1014 963v405l61 115v-520h-61z" />
<glyph unicode="&#x2212;" horiz-adv-x="942" d="M102 602v62h738v-62h-738z" />
<glyph unicode="&#xe000;" horiz-adv-x="1115" d="M0 1115h1115v-1115h-1115v1115z" />
<glyph unicode="&#xf628;" horiz-adv-x="1394" d="M123 940q0 61 39 107.5t98 56.5v-62q-76 -25 -76 -102q0 -37 20.5 -64.5t55.5 -37.5v-62q-59 10 -98 56.5t-39 107.5zM127 16l690 1098l53 -33l-690 -1097zM322 776v62q33 10 54 37.5t21 64.5t-21.5 64.5t-53.5 37.5v62q59 -10 98 -56.5t39 -107.5t-39 -107.5t-98 -56.5z M539 155.5q0 61.5 38.5 107.5t98.5 56v-61q-76 -25 -76 -102q0 -37 20.5 -65t55.5 -38v-61q-59 10 -98 56t-39 107.5zM737 -8v61q33 10 54.5 38t21.5 65t-21.5 64.5t-54.5 37.5v61q59 -10 98 -56t39 -107.5t-39 -107.5t-98 -56zM956 155.5q0 61.5 39 107.5t99 56v-61 q-76 -25 -76 -102q0 -37 20.5 -65t55.5 -38v-61q-59 10 -98.5 56t-39.5 107.5zM1155 -8v61q33 10 54.5 38t21.5 65t-21.5 64.5t-54.5 37.5v61q59 -10 98 -56t39 -107.5t-39 -107.5t-98 -56z" />
<glyph unicode="&#xf642;" horiz-adv-x="997" d="M123 940q0 61 39 107.5t98 56.5v-62q-76 -25 -76 -102q0 -37 20.5 -64.5t55.5 -37.5v-62q-59 10 -98 56.5t-39 107.5zM127 16l690 1098l53 -33l-690 -1097zM322 776v62q33 10 54 37.5t21 64.5t-21.5 64.5t-53.5 37.5v62q59 -10 98 -56.5t39 -107.5t-39 -107.5t-98 -56.5z M539 155.5q0 61.5 38.5 107.5t98.5 56v-61q-76 -25 -76 -102q0 -37 20.5 -65t55.5 -38v-61q-59 10 -98 56t-39 107.5zM737 -8v61q33 10 54.5 38t21.5 65t-21.5 64.5t-54.5 37.5v61q59 -10 98 -56t39 -107.5t-39 -107.5t-98 -56z" />
<glyph unicode="&#xf64e;" horiz-adv-x="1099" d="M102 422v61h697v-61h-697zM102 606v62h697v-62h-697zM203 729q63 170 233 277.5t430 107.5q63 0 131 -6l-4 -61q-68 6 -127 6q-229 0 -381.5 -90.5t-216.5 -233.5h-65zM205 360h69q63 -141 214 -227t378 -86q59 0 127 6l4 -61q-68 -6 -131 -6q-256 0 -425.5 104 t-235.5 270z" />
<glyph unicode="&#xf652;" horiz-adv-x="1132" d="M102 1077l45 39l416 -518l422 522l45 -43l-436 -538v-39h-62v39zM236 197v61h655v-61h-655zM236 377v61h655v-61h-655zM532 0v135h62v-135h-62z" />
<glyph unicode="&#xf653;" horiz-adv-x="966" d="M119 2l8 61q88 -14 176 -14q211 0 345 80t134 188q0 88 -76.5 154t-201.5 80l-82 10q-147 18 -223 85t-76 169q0 96 75.5 173t209.5 106v241h61v-231q45 4 74 4q39 0 112 -8l-8 -62q-74 8 -104 9q-162 0 -260.5 -68t-98.5 -164q0 -76 64.5 -126t181.5 -66l80 -11 q158 -20 246 -99t88 -196q0 -109 -102.5 -196.5t-272.5 -118.5v-229h-61v221q-49 -6 -105 -6q-96 0 -184 14z" />
<glyph unicode="&#xf66d;" horiz-adv-x="1052" d="M129 12l358 955l33 -86l-336 -895zM340 223l22 62h447l-289 768l33 88l424 -1129l-55 -26l-91 237h-491zM348 1475h62q0 -55 38.5 -89t104 -34t104.5 33.5t39 89.5h62q0 -78 -57.5 -131.5t-147.5 -53.5t-147.5 53.5t-57.5 131.5z" />
<glyph unicode="&#xf66e;" horiz-adv-x="1052" d="M129 12l358 955l33 -86l-336 -895zM287 1352v61h532v-61h-532zM340 223l22 62h447l-289 768l33 88l424 -1129l-55 -26l-91 237h-491z" />
<glyph unicode="&#xf66f;" horiz-adv-x="1052" d="M102 12l359 955l33 -86l-336 -895zM313 223l23 62h446l-288 768l32 88l424 -1129l-26 -12l14 -25q-94 -49 -94 -96q0 -35 43 -35q29 0 61 23l33 -53q-49 -31 -94 -31q-47 0 -76 26.5t-29 69.5q0 76 101 135l-78 209h-492z" />
<glyph unicode="&#xf670;" horiz-adv-x="1531" d="M102 16l711 1082h606v-62h-571l-463 -706h367v-62h-408l-188 -284zM807 1294l309 224l37 -50l-309 -223zM813 0v868l61 93v-297h410v-62h-410v-541h545v-61h-606z" />
<glyph unicode="&#xf671;" horiz-adv-x="1030" d="M102 548.5q0 229.5 183.5 397.5t511.5 168q63 0 131 -6l-4 -61q-68 6 -127 6q-299 0 -466 -150.5t-167 -353.5t167 -352.5t466 -149.5q59 0 127 6l4 -61q-68 -6 -131 -6q-328 0 -511.5 166.5t-183.5 396zM453 1294l309 224l37 -50l-310 -223z" />
<glyph unicode="&#xf672;" horiz-adv-x="1030" d="M102 548.5q0 229.5 183.5 397.5t511.5 168q63 0 131 -6l-4 -61q-68 6 -127 6q-299 0 -466 -150.5t-167 -353.5t167 -352.5t466 -149.5q59 0 127 6l4 -61q-68 -6 -131 -6q-328 0 -511.5 166.5t-183.5 396zM430 1481l49 37l133 -170l136 170l49 -37l-185 -236z" />
<glyph unicode="&#xf673;" horiz-adv-x="1030" d="M102 548.5q0 229.5 183.5 397.5t511.5 168q63 0 131 -6l-4 -61q-68 6 -127 6q-299 0 -466 -150.5t-167 -353.5t167 -352.5t466 -149.5q59 0 127 6l4 -61q-68 -6 -131 -6q-328 0 -511.5 166.5t-183.5 396zM424 1282l182 236l185 -236l-50 -37l-135 170l-133 -170z" />
<glyph unicode="&#xf674;" horiz-adv-x="1030" d="M102 548.5q0 229.5 183.5 397.5t511.5 168q63 0 131 -6l-4 -61q-68 6 -127 6q-299 0 -466 -150.5t-167 -353.5t167 -352.5t466 -149.5q59 0 127 6l4 -61q-68 -6 -131 -6q-328 0 -511.5 166.5t-183.5 396zM575 1331v103h103v-103h-103z" />
<glyph unicode="&#xf675;" horiz-adv-x="1089" d="M135 0v1106q41 4 62 4v-1114q-25 0 -62 4zM248 1481l49 37l133 -170l135 170l49 -37l-184 -236zM258 -6v61h35q299 0 466 147.5t167 350.5t-167 351.5t-466 148.5h-35v61h35q328 0 511 -166t183 -395q0 -227 -183 -393t-511 -166h-35z" />
<glyph unicode="&#xf676;" horiz-adv-x="1118" d="M-31 553v61h195v492q41 4 61 4v-1114q-25 0 -61 4v553h-195zM287 -6v61h35q299 0 465.5 147.5t166.5 350.5t-166.5 351.5t-465.5 148.5h-35v61h35q328 0 511 -166t183 -395q0 -227 -183.5 -393t-510.5 -166h-35zM287 553v61h215v-61h-215z" />
<glyph unicode="&#xf677;" horiz-adv-x="1058" d="M135 0v1098h62v-1098h-62zM258 0v61h688v-61h-688zM258 602v62h553v-62h-553zM258 1036v62h688v-62h-688zM336 1475h61q0 -55 39 -89t104.5 -34t104.5 33.5t39 89.5h61q0 -78 -57 -131.5t-147 -53.5t-147.5 53.5t-57.5 131.5z" />
<glyph unicode="&#xf678;" horiz-adv-x="1058" d="M135 0v1098h62v-1098h-62zM258 0v61h688v-61h-688zM258 602v62h553v-62h-553zM258 1036v62h688v-62h-688zM358 1481l50 37l133 -170l135 170l49 -37l-184 -236z" />
<glyph unicode="&#xf679;" horiz-adv-x="1058" d="M135 0v1098h62v-1098h-62zM258 0v61h688v-61h-688zM258 602v62h553v-62h-553zM258 1036v62h688v-62h-688zM489 1331v103h103v-103h-103z" />
<glyph unicode="&#xf67a;" horiz-adv-x="1058" d="M135 0v1098h62v-1098h-62zM258 0v61h688v-61h-688zM258 602v62h553v-62h-553zM258 1036v62h688v-62h-688zM274 1352v61h533v-61h-533z" />
<glyph unicode="&#xf67c;" horiz-adv-x="1058" d="M135 0v1098h62v-1098h-62zM258 0v61h688v-61h-166l15 -25q-94 -49 -95 -96q0 -35 43 -35q27 0 62 23l33 -53q-49 -31 -95 -31q-47 0 -75.5 26.5t-28.5 69.5q0 70 78 121h-459zM258 602v62h553v-62h-553zM258 1036v62h688v-62h-688z" />
<glyph unicode="&#xf67d;" horiz-adv-x="1050" d="M102 553q0 229 182.5 395t512.5 166q63 0 131 -6v-61q-61 6 -131 6q-301 0 -467 -148.5t-166 -351.5t167 -350.5t466 -147.5h8v-61h-8q-328 0 -511.5 166t-183.5 393zM440 1475h62q0 -55 39 -89t104.5 -34t104 33.5t38.5 89.5h62q0 -78 -57.5 -131.5t-147.5 -53.5 t-147.5 53.5t-57.5 131.5zM866 -4v467h62v-463q-42 -4 -62 -4z" />
<glyph unicode="&#xf67e;" horiz-adv-x="1050" d="M102 553q0 229 182.5 395t512.5 166q63 0 131 -6v-61q-61 6 -131 6q-301 0 -467 -148.5t-166 -351.5t167 -350.5t466 -147.5h8v-61h-8q-328 0 -511.5 166t-183.5 393zM463 1282l182 236l184 -236l-49 -37l-135 170l-133 -170zM866 -4v467h62v-463q-42 -4 -62 -4z" />
<glyph unicode="&#xf67f;" horiz-adv-x="1050" d="M102 553q0 229 182.5 395t512.5 166q63 0 131 -6v-61q-61 6 -131 6q-301 0 -467 -148.5t-166 -351.5t167 -350.5t466 -147.5h8v-61h-8q-328 0 -511.5 166t-183.5 393zM645 -102h123v-144q0 -119 -96 -153l-21 57q55 18 56 96v31h-62v113zM866 -4v467h62v-463 q-42 -4 -62 -4z" />
<glyph unicode="&#xf680;" horiz-adv-x="1050" d="M102 553q0 229 182.5 395t512.5 166q63 0 131 -6v-61q-61 6 -131 6q-301 0 -467 -148.5t-166 -351.5t167 -350.5t466 -147.5h8v-61h-8q-328 0 -511.5 166t-183.5 393zM594 1331v103h102v-103h-102zM866 -4v467h62v-463q-42 -4 -62 -4z" />
<glyph unicode="&#xf681;" horiz-adv-x="1081" d="M8 872v62h1065v-62h-1065zM135 0v811h62v-811h-62zM135 995v103h62v-103h-62zM258 602v62h627v147h61v-811h-61v602h-627zM885 995v103h61v-103h-61z" />
<glyph unicode="&#xf682;" horiz-adv-x="1081" d="M135 0v1098h62v-1098h-62zM258 602v62h627v434h61v-1098h-61v602h-627zM358 1282l183 236l184 -236l-49 -37l-135 170l-133 -170z" />
<glyph unicode="&#xf683;" d="M-31 1475h62q0 -55 39 -89t104.5 -34t104 33.5t38.5 89.5h62q0 -78 -57.5 -131.5t-147.5 -53.5t-147.5 53.5t-57.5 131.5zM143 0v1098h62v-1098h-62z" />
<glyph unicode="&#xf684;" horiz-adv-x="1275" d="M143 0v1098h62v-1098h-62zM440 119l43 47q135 -125 260 -125q123 0 210 79t118 195q20 74 21 160v623h61v-641q0 -203 -115.5 -340t-294.5 -137q-164 0 -303 139z" />
<glyph unicode="&#xf685;" d="M-92 1352v61h532v-61h-532zM143 0v1098h62v-1098h-62z" />
<glyph unicode="&#xf686;" d="M45 -121q0 78 98 133v1086h62v-1098h-19l15 -25q-94 -49 -95 -96q0 -35 44 -35q27 0 61 23l33 -53q-49 -31 -94 -31q-47 0 -76 26.5t-29 69.5z" />
<glyph unicode="&#xf687;" d="M-68 1354q51 96 144 96q59 0 117 -45q39 -31 77 -31q61 0 97 72l49 -37q-53 -96 -146 -96q-57 0 -114 43q-43 33 -80 33q-61 0 -94 -72zM143 0v1098h62v-1098h-62z" />
<glyph unicode="&#xf688;" horiz-adv-x="937" d="M102 119l43 47q135 -125 261 -125q123 0 209.5 79t117.5 195q20 74 21 160v623h61v-641q0 -203 -115.5 -340t-293.5 -137q-165 0 -304 139zM602 1282l182 236l185 -236l-49 -37l-136 170l-133 -170z" />
<glyph unicode="&#xf689;" horiz-adv-x="1167" d="M135 0v1098h62v-1098h-62zM258 475v78l770 567l37 -49zM381 487l49 39l635 -499l-37 -50zM539 -102h123v-144q0 -119 -97 -153l-20 57q55 18 55 96v31h-61v113z" />
<glyph unicode="&#xf68a;" horiz-adv-x="970" d="M25 1294l309 224l37 -50l-310 -223zM135 0v1098h62v-1098h-62zM258 0v61h610v-61h-610z" />
<glyph unicode="&#xf68b;" horiz-adv-x="970" d="M135 0v1098h62v-1098h-62zM258 0v61h610v-61h-610zM319 985v113h123v-144q0 -119 -96 -153l-20 57q55 18 55 96v31h-62z" />
<glyph unicode="&#xf68c;" horiz-adv-x="970" d="M135 0v1098h62v-1098h-62zM258 0v61h610v-61h-610zM440 -102h123v-144q0 -119 -96 -153l-21 57q55 18 56 96v31h-62v113z" />
<glyph unicode="&#xf68d;" horiz-adv-x="970" d="M135 0v1098h62v-1098h-62zM258 0v61h610v-61h-610zM444 584v102h103v-102h-103z" />
<glyph unicode="&#xf68e;" horiz-adv-x="1124" d="M135 0v950l62 -80v-870h-62zM135 1047v98l854 -1094v-98zM389 1294l309 224l37 -50l-309 -223zM928 227v871h61v-951z" />
<glyph unicode="&#xf68f;" horiz-adv-x="1124" d="M135 0v950l62 -80v-870h-62zM135 1047v98l854 -1094v-98zM379 1481l49 37l133 -170l135 170l49 -37l-184 -236zM928 227v871h61v-951z" />
<glyph unicode="&#xf690;" horiz-adv-x="1124" d="M135 0v950l62 -80v-870h-62zM135 1047v98l854 -1094v-98zM500 -102h123v-144q0 -119 -97 -153l-20 57q55 18 55 96v31h-61v113zM928 227v871h61v-951z" />
<glyph unicode="&#xf691;" horiz-adv-x="1343" d="M102 549q0 227 157 391t382 176v-61q-201 -12 -339 -157.5t-138 -348.5t138 -349.5t339 -158.5v-59q-225 12 -382 176t-157 391zM467 1475h61q0 -55 39 -89t104.5 -34t104.5 33.5t39 89.5h62q0 -78 -57.5 -131.5t-147.5 -53.5t-147.5 53.5t-57.5 131.5zM702 -18v59 q201 12 339.5 158.5t138.5 349.5t-138.5 348t-339.5 158v61q225 -12 382 -176t157 -391t-157 -391t-382 -176z" />
<glyph unicode="&#xf692;" horiz-adv-x="1343" d="M102 549q0 227 157 391t382 176v-61q-201 -12 -339 -157.5t-138 -348.5t138 -349.5t339 -158.5v-59q-225 12 -382 176t-157 391zM424 1294l309 224l37 -50l-309 -223zM674 1294l309 224l37 -50l-309 -223zM702 -18v59q201 12 339.5 158.5t138.5 349.5t-138.5 348 t-339.5 158v61q225 -12 382 -176t157 -391t-157 -391t-382 -176z" />
<glyph unicode="&#xf693;" horiz-adv-x="1343" d="M102 549q0 227 157 391t382 176v-61q-201 -12 -339 -157.5t-138 -348.5t138 -349.5t339 -158.5v-59q-225 12 -382 176t-157 391zM406 1352v61h532v-61h-532zM702 -18v59q201 12 339.5 158.5t138.5 349.5t-138.5 348t-339.5 158v61q225 -12 382 -176t157 -391t-157 -391 t-382 -176z" />
<glyph unicode="&#xf694;" horiz-adv-x="1343" d="M102 23l146 145q-145 166 -146 381q0 227 157 391t382 176v-61q-201 -12 -339 -157.5t-138 -348.5q0 -195 127 -338l717 719q-131 117 -306 125v61q195 -8 347 -143l147 147l45 -45l-147 -147q147 -160 147 -379q0 -227 -156.5 -391t-382.5 -176v59q201 12 339.5 158.5 t138.5 349.5q0 188 -127 336l-717 -719q129 -113 305 -125v-59q-203 10 -348 141l-146 -146zM500 1294l309 224l37 -50l-309 -223z" />
<glyph unicode="&#xf695;" horiz-adv-x="876" d="M135 0v1100q33 4 62 4v-1104h-62zM233 1294l310 224l37 -50l-310 -223zM258 418v61q174 4 298 75t124 206q0 119 -108.5 200.5t-313.5 83.5v62q227 -2 355 -100.5t128 -245.5q0 -131 -88 -210t-192 -106l323 -426l-51 -32l-340 444q-74 -12 -135 -12z" />
<glyph unicode="&#xf696;" horiz-adv-x="876" d="M135 0v1100q33 4 62 4v-1104h-62zM168 1481l49 37l133 -170l135 170l50 -37l-185 -236zM258 418v61q174 4 298 75t124 206q0 119 -108.5 200.5t-313.5 83.5v62q227 -2 355 -100.5t128 -245.5q0 -131 -88 -210t-192 -106l323 -426l-51 -32l-340 444q-74 -12 -135 -12z" />
<glyph unicode="&#xf697;" horiz-adv-x="876" d="M135 0v1100q33 4 62 4v-1104h-62zM258 418v61q174 4 298 75t124 206q0 119 -108.5 200.5t-313.5 83.5v62q227 -2 355 -100.5t128 -245.5q0 -131 -88 -210t-192 -106l323 -426l-51 -32l-340 444q-74 -12 -135 -12zM397 -102h123v-144q0 -119 -96 -153l-21 57q55 18 56 96 v31h-62v113z" />
<glyph unicode="&#xf698;" horiz-adv-x="1044" d="M106 778q0 154 114 240t282 92v-61q-150 -6 -242 -76t-92 -195q0 -51 27.5 -87t87 -57.5t106.5 -31.5t133 -22q41 -8 82 -13.5t82 -14.5t78 -20.5t68.5 -31t55 -43t37 -59.5t13.5 -79q0 -156 -110.5 -241.5t-284.5 -91.5v61q145 8 239.5 79t94.5 193q0 43 -24 77 t-60.5 52.5t-83.5 33t-95.5 21.5t-93.5 15q-49 10 -104.5 17.5t-110.5 26t-99 43t-72 69.5t-28 104zM117 215l57 27q84 -180 307 -195v-61q-268 12 -364 229zM350 1294l309 224l37 -50l-309 -223zM563 1049v61q127 -6 227.5 -65.5t139.5 -167.5l-56 -25q-39 90 -122 140.5 t-189 56.5z" />
<glyph unicode="&#xf699;" horiz-adv-x="1044" d="M106 778q0 154 114 240t282 92v-61q-150 -6 -242 -76t-92 -195q0 -51 27.5 -87t87 -57.5t106.5 -31.5t133 -22q41 -8 82 -13.5t82 -14.5t78 -20.5t68.5 -31t55 -43t37 -59.5t13.5 -79q0 -152 -103.5 -235.5t-271.5 -95.5l-8 -35q74 -14 74 -84q0 -51 -37 -76.5t-88 -25.5 q-35 0 -66 12l21 57q18 -8 47 -8q61 0 61 41q0 20 -65 20h-27l37 158q156 0 260.5 71.5t104.5 200.5q0 43 -24 77t-60.5 52.5t-83.5 33t-95.5 21.5t-93.5 15q-49 10 -104.5 17.5t-110.5 26t-99 43t-72 69.5t-28 104zM117 215l57 27q76 -170 277 -191l-15 -61 q-231 26 -319 225zM563 1049v61q127 -6 227.5 -65.5t139.5 -167.5l-56 -25q-39 90 -122 140.5t-189 56.5z" />
<glyph unicode="&#xf69a;" horiz-adv-x="1044" d="M106 778q0 154 114 240t282 92v-61q-150 -6 -242 -76t-92 -195q0 -51 27.5 -87t87 -57.5t106.5 -31.5t133 -22q41 -8 82 -13.5t82 -14.5t78 -20.5t68.5 -31t55 -43t37 -59.5t13.5 -79q0 -156 -110.5 -241.5t-284.5 -91.5v61q145 8 239.5 79t94.5 193q0 43 -24 77 t-60.5 52.5t-83.5 33t-95.5 21.5t-93.5 15q-49 10 -104.5 17.5t-110.5 26t-99 43t-72 69.5t-28 104zM117 215l57 27q84 -180 307 -195v-61q-268 12 -364 229zM340 1282l182 236l185 -236l-50 -37l-135 170l-133 -170zM563 1049v61q127 -6 227.5 -65.5t139.5 -167.5l-56 -25 q-39 90 -122 140.5t-189 56.5z" />
<glyph unicode="&#xf69b;" horiz-adv-x="1044" d="M106 778q0 154 114 240t282 92v-61q-150 -6 -242 -76t-92 -195q0 -51 27.5 -87t87 -57.5t106.5 -31.5t133 -22q41 -8 82 -13.5t82 -14.5t78 -20.5t68.5 -31t55 -43t37 -59.5t13.5 -79q0 -156 -110.5 -241.5t-284.5 -91.5v61q145 8 239.5 79t94.5 193q0 43 -24 77 t-60.5 52.5t-83.5 33t-95.5 21.5t-93.5 15q-49 10 -104.5 17.5t-110.5 26t-99 43t-72 69.5t-28 104zM117 215l57 27q84 -180 307 -195v-61q-268 12 -364 229zM461 -102h123v-144q0 -119 -97 -153l-20 57q55 18 55 96v31h-61v113zM563 1049v61q127 -6 227.5 -65.5 t139.5 -167.5l-56 -25q-39 90 -122 140.5t-189 56.5z" />
<glyph unicode="&#xf69c;" horiz-adv-x="1077" d="M102 1036v62h873v-62h-873zM272 604v62h533v-62h-533zM508 0v543h61v-543h-61zM508 727v248h61v-248h-61z" />
<glyph unicode="&#xf69d;" horiz-adv-x="1077" d="M102 1036v62h873v-62h-873zM356 1481l50 37l133 -170l135 170l49 -37l-184 -236zM508 0v975h61v-975h-61z" />
<glyph unicode="&#xf69e;" horiz-adv-x="1077" d="M102 1036v62h873v-62h-873zM477 -102h123v-144q0 -119 -96 -153l-21 57q55 18 56 96v31h-62v113zM508 0v975h61v-975h-61z" />
<glyph unicode="&#xf69f;" horiz-adv-x="1101" d="M123 395v703h61v-703q0 -147 96.5 -245.5t239.5 -108.5v-61q-168 10 -282.5 125.5t-114.5 289.5zM346 1475h62q0 -55 38.5 -89t104 -34t104.5 33.5t39 89.5h62q0 -78 -57.5 -131.5t-147.5 -53.5t-147.5 53.5t-57.5 131.5zM582 -20v61q143 10 239.5 108.5t96.5 245.5v703 h61v-703q0 -174 -114.5 -289.5t-282.5 -125.5z" />
<glyph unicode="&#xf6a0;" horiz-adv-x="1101" d="M123 395v703h61v-703q0 -147 96.5 -245.5t239.5 -108.5v-61q-168 10 -282.5 125.5t-114.5 289.5zM315 1294l310 224l37 -50l-310 -223zM565 1294l309 224l37 -50l-309 -223zM582 -20v61q143 10 239.5 108.5t96.5 245.5v703h61v-703q0 -174 -114.5 -289.5t-282.5 -125.5z " />
<glyph unicode="&#xf6a1;" horiz-adv-x="1101" d="M123 395v703h61v-703q0 -147 96.5 -245.5t239.5 -108.5v-61q-168 10 -282.5 125.5t-114.5 289.5zM285 1352v61h532v-61h-532zM582 -20v61q143 10 239.5 108.5t96.5 245.5v703h61v-703q0 -174 -114.5 -289.5t-282.5 -125.5z" />
<glyph unicode="&#xf6a2;" horiz-adv-x="1101" d="M123 395v703h61v-703q0 -147 96.5 -245.5t239.5 -108.5v-61q-168 10 -282.5 125.5t-114.5 289.5zM453 -195q0 84 127 150l28 -53q-94 -49 -94 -97q0 -35 43 -34q29 0 61 22l33 -53q-49 -31 -94 -31q-47 0 -75.5 26.5t-28.5 69.5zM582 -20v61q143 10 239.5 108.5 t96.5 245.5v703h61v-703q0 -174 -114.5 -289.5t-282.5 -125.5z" />
<glyph unicode="&#xf6a3;" horiz-adv-x="1101" d="M123 395v703h61v-703q0 -147 96.5 -245.5t239.5 -108.5v-61q-168 10 -282.5 125.5t-114.5 289.5zM414 1382.5q0 49.5 29.5 86t76.5 47.5v-66q-45 -20 -45 -68q0 -49 45 -69v-64q-47 10 -76.5 47t-29.5 86.5zM582 -20v61q143 10 239.5 108.5t96.5 245.5v703h61v-703 q0 -174 -114.5 -289.5t-282.5 -125.5zM582 1249v64q45 20 45 69q0 47 -45 68v66q45 -10 75.5 -47t30.5 -86.5t-30.5 -86.5t-75.5 -47z" />
<glyph unicode="&#xf6a4;" horiz-adv-x="1101" d="M123 395v703h61v-703q0 -147 96.5 -245.5t239.5 -108.5v-61q-168 10 -282.5 125.5t-114.5 289.5zM309 1354q51 96 144 96q59 0 116 -45q39 -31 78 -31q61 0 96 72l50 -37q-53 -96 -146 -96q-57 0 -115 43q-43 33 -79 33q-61 0 -95 -72zM582 -20v61q143 10 239.5 108.5 t96.5 245.5v703h61v-703q0 -174 -114.5 -289.5t-282.5 -125.5z" />
<glyph unicode="&#xf6a5;" horiz-adv-x="1593" d="M102 1087l58 21l411 -1065l-32 -84zM571 211l160 414l33 -84l-160 -414zM618 1087l58 21l121 -313l121 313l57 -21l-146 -376l258 -668l-32 -84zM625 1294l309 224l37 -50l-309 -223zM1087 211l347 897l57 -21l-371 -960z" />
<glyph unicode="&#xf6a6;" horiz-adv-x="1593" d="M102 1087l58 21l411 -1065l-32 -84zM571 211l160 414l33 -84l-160 -414zM614 1282l183 236l184 -236l-49 -37l-135 170l-133 -170zM618 1087l58 21l121 -313l121 313l57 -21l-146 -376l258 -668l-32 -84zM1087 211l347 897l57 -21l-371 -960z" />
<glyph unicode="&#xf6a7;" horiz-adv-x="1593" d="M102 1087l58 21l411 -1065l-32 -84zM571 211l160 414l33 -84l-160 -414zM608 1331v103h103v-103h-103zM618 1087l58 21l121 -313l121 313l57 -21l-146 -376l258 -668l-32 -84zM885 1331v103h102v-103h-102zM1087 211l347 897l57 -21l-371 -960z" />
<glyph unicode="&#xf6a8;" horiz-adv-x="1593" d="M102 1087l58 21l411 -1065l-32 -84zM571 211l160 414l33 -84l-160 -414zM618 1087l58 21l121 -313l121 313l57 -21l-146 -376l258 -668l-32 -84zM625 1468l37 50l309 -224l-37 -49zM1087 211l347 897l57 -21l-371 -960z" />
<glyph unicode="&#xf6a9;" horiz-adv-x="1132" d="M102 1077l45 39l447 -555v-561h-62v539zM381 1282l182 236l185 -236l-50 -37l-135 170l-133 -170zM602 647l383 473l45 -43l-389 -479z" />
<glyph unicode="&#xf6aa;" horiz-adv-x="1132" d="M102 1077l45 39l447 -555v-561h-62v539zM391 1468l37 50l309 -224l-37 -49zM602 647l383 473l45 -43l-389 -479z" />
<glyph unicode="&#xf6ab;" horiz-adv-x="1093" d="M94 0l826 1098h79l-825 -1098h-80zM102 1036v62h740l-47 -62h-693zM252 0l47 61h692v-61h-739zM375 1294l309 224l37 -50l-309 -223z" />
<glyph unicode="&#xf6ac;" horiz-adv-x="1093" d="M94 0l826 1098h79l-825 -1098h-80zM102 1036v62h740l-47 -62h-693zM252 0l47 61h692v-61h-739zM496 1331v103h102v-103h-102z" />
<glyph unicode="&#xf6ad;" d="M123 1331v103h102v-103h-102zM143 0v1098h62v-1098h-62z" />
<glyph unicode="&#xf6b4;" d="M113 1311v123h123v-123h-123zM143 0v1098h62v-1098h-62z" />
<glyph unicode="&#xf6b5;" horiz-adv-x="1028" d="M102 352q0 229 238 353q84 43 127 94t43 133v166h61v-166q0 -180 -196 -281q-72 -41 -108 -68.5t-69.5 -88t-33.5 -142.5q0 -145 110.5 -233t255.5 -88q238 0 340 202l56 -24q-119 -240 -394 -240q-168 0 -299 101.5t-131 281.5zM479 1311v123h123v-123h-123z" />
<glyph unicode="&#xf6be;" d="M-250 -475l53 29q53 -92 148 -93q82 0 137 71t55 194v1372h62v-1372q0 -150 -73 -238t-181 -88q-131 0 -201 125z" />
<glyph unicode="&#xf6c3;" horiz-adv-x="368" d="M123 -102h123v-144q0 -119 -96 -153l-21 57q55 18 55 96v31h-61v113z" />
<glyph unicode="&#xf6f9;" horiz-adv-x="970" d="M-6 621l348 249l37 -49l-348 -250zM135 0v571l62 43v-614h-62zM135 799v299h62v-256zM258 0v61h610v-61h-610z" />
<glyph unicode="&#xf6fa;" horiz-adv-x="2109" d="M102 548.5q0 231.5 159 398.5t388 179v-61q-203 -10 -344 -159.5t-141 -356.5t141 -356.5t344 -161.5v-60q-229 12 -388 179t-159 398.5zM711 -29v60q203 12 344 161.5t141 356.5t-141.5 356.5t-343.5 159.5v61q156 -8 285.5 -94t199.5 -223v289h811v-62h-750v-372h615 v-62h-615v-541h750v-61h-811v289q-70 -139 -199.5 -224.5t-285.5 -93.5z" />
<glyph unicode="&#xf6fd;" horiz-adv-x="1044" d="M106 778q0 154 114 240t282 92v-61q-150 -6 -242 -76t-92 -195q0 -51 27.5 -87t87 -57.5t106.5 -31.5t133 -22q41 -8 82 -13.5t82 -14.5t78 -20.5t68.5 -31t55 -43t37 -59.5t13.5 -79q0 -156 -110.5 -241.5t-284.5 -91.5v61q145 8 239.5 79t94.5 193q0 43 -24 77 t-60.5 52.5t-83.5 33t-95.5 21.5t-93.5 15q-49 10 -104.5 17.5t-110.5 26t-99 43t-72 69.5t-28 104zM117 215l57 27q84 -180 307 -195v-61q-268 12 -364 229zM340 1481l49 37l133 -170l135 170l50 -37l-185 -236zM563 1049v61q127 -6 227.5 -65.5t139.5 -167.5l-56 -25 q-39 90 -122 140.5t-189 56.5z" />
<glyph unicode="&#xf6ff;" horiz-adv-x="1093" d="M94 0l826 1098h79l-825 -1098h-80zM102 1036v62h740l-47 -62h-693zM252 0l47 61h692v-61h-739zM365 1481l49 37l133 -170l135 170l49 -37l-184 -236z" />
<glyph unicode="&#xf721;" d="M113 0v123h123v-123h-123zM143 336v762h62v-762h-62z" />
<glyph unicode="&#xf726;" horiz-adv-x="923" d="M113 313q0 94 69.5 174t200.5 119q-162 74 -162 232q0 109 92.5 189.5t255.5 80.5q25 0 74 -4l-4 -62q-49 4 -70 5q-135 0 -210.5 -62.5t-75.5 -146.5q0 -82 72.5 -142.5t199.5 -60.5h45v-62h-22q-186 0 -295 -80.5t-109 -179.5q0 -104 110.5 -180t311.5 -76h4v-61h-4 q-229 0 -356 94t-127 223zM662 -2v733h61v-96h98v-62h-98v-571q-41 -4 -61 -4z" />
<glyph unicode="&#xf73f;" horiz-adv-x="792" d="M102 958q84 170 281 170q121 0 214 -73.5t93 -200.5q0 -92 -43 -148.5t-129 -103.5q-111 -61 -110 -151v-115h-62v115q0 123 143 204q68 39 104 83t36 116q0 98 -75 155.5t-171 57.5q-160 0 -227 -137zM315 0v123h123v-123h-123z" />
<glyph unicode="&#xf761;" horiz-adv-x="1052" d="M102 12l359 955l33 -86l-336 -895zM313 223l23 62h446l-288 768l32 88l424 -1129l-55 -26l-90 237h-492z" />
<glyph unicode="&#xf762;" horiz-adv-x="847" d="M135 0v1098q6 0 27.5 3t34.5 3v-1112q-25 0 -62 8zM258 -10v61h12q158 0 286 71t128 181q0 59 -40 116.5t-109 92.5q-106 53 -277 57v60q104 2 185 58t81 146.5t-76.5 146.5t-189.5 62v64q129 -6 228.5 -75.5t99.5 -196.5q0 -72 -43 -132.5t-109 -91.5 q137 -29 224 -112.5t87 -190.5q0 -145 -142 -230t-345 -87z" />
<glyph unicode="&#xf763;" horiz-adv-x="1030" d="M102 548.5q0 229.5 183.5 397.5t511.5 168q63 0 131 -6l-4 -61q-68 6 -127 6q-299 0 -466 -150.5t-167 -353.5t167 -352.5t466 -149.5q59 0 127 6l4 -61q-68 -6 -131 -6q-328 0 -511.5 166.5t-183.5 396z" />
<glyph unicode="&#xf764;" horiz-adv-x="1089" d="M135 0v1106q41 4 62 4v-1114q-25 0 -62 4zM258 -6v61h35q299 0 466 147.5t167 350.5t-167 351.5t-466 148.5h-35v61h35q328 0 511 -166t183 -395q0 -227 -183 -393t-511 -166h-35z" />
<glyph unicode="&#xf765;" horiz-adv-x="1058" d="M135 0v1098h62v-1098h-62zM258 0v61h688v-61h-688zM258 602v62h553v-62h-553zM258 1036v62h688v-62h-688z" />
<glyph unicode="&#xf766;" horiz-adv-x="1048" d="M135 0v1098h62v-1098h-62zM258 602v62h553v-62h-553zM258 1036v62h688v-62h-688z" />
<glyph unicode="&#xf767;" horiz-adv-x="1050" d="M102 553q0 229 182.5 395t512.5 166q63 0 131 -6v-61q-61 6 -131 6q-301 0 -467 -148.5t-166 -351.5t167 -350.5t466 -147.5h8v-61h-8q-328 0 -511.5 166t-183.5 393zM866 -4v467h62v-463q-42 -4 -62 -4z" />
<glyph unicode="&#xf768;" horiz-adv-x="1081" d="M135 0v1098h62v-1098h-62zM258 602v62h627v434h61v-1098h-61v602h-627z" />
<glyph unicode="&#xf769;" d="M143 0v1098h62v-1098h-62z" />
<glyph unicode="&#xf76a;" horiz-adv-x="927" d="M92 119l43 47q135 -125 260 -125q123 0 210 79t118 195q20 74 20 160v623h62v-641q0 -203 -116 -340t-294 -137q-164 0 -303 139z" />
<glyph unicode="&#xf76b;" horiz-adv-x="1167" d="M135 0v1098h62v-1098h-62zM258 475v78l770 567l37 -49zM381 487l49 39l635 -499l-37 -50z" />
<glyph unicode="&#xf76c;" horiz-adv-x="970" d="M135 0v1098h62v-1098h-62zM258 0v61h610v-61h-610z" />
<glyph unicode="&#xf76d;" horiz-adv-x="1327" d="M135 0v889l62 -115v-774h-62zM135 1018v129l529 -989l405 757v-129l-405 -759zM1130 0v1030l62 117v-1147h-62z" />
<glyph unicode="&#xf76e;" horiz-adv-x="1124" d="M135 0v950l62 -80v-870h-62zM135 1047v98l854 -1094v-98zM928 227v871h61v-951z" />
<glyph unicode="&#xf76f;" horiz-adv-x="1343" d="M102 549q0 227 157 391t382 176v-61q-201 -12 -339 -157.5t-138 -348.5t138 -349.5t339 -158.5v-59q-225 12 -382 176t-157 391zM702 -18v59q201 12 339.5 158.5t138.5 349.5t-138.5 348t-339.5 158v61q225 -12 382 -176t157 -391t-157 -391t-382 -176z" />
<glyph unicode="&#xf770;" horiz-adv-x="843" d="M135 0v1100q33 4 62 4v-1104h-62zM258 418v61q174 4 298 75t124 206q0 119 -108.5 200.5t-313.5 83.5v62q227 -2 355 -100.5t128 -246t-128 -243.5t-355 -98z" />
<glyph unicode="&#xf771;" horiz-adv-x="1343" d="M102 549q0 227 157 391t382 176v-61q-201 -12 -339 -157.5t-138 -348.5t138 -349.5t339 -158.5v-59q-225 12 -382 176t-157 391zM702 -18v59q168 8 302 123l-136 135l45 41l134 -133q133 145 133 342q0 203 -138.5 348t-339.5 158v61q225 -12 382 -176t157 -391 q0 -223 -151 -385l141 -141q-33 -29 -45 -41l-139 139q-150 -131 -345 -139z" />
<glyph unicode="&#xf772;" horiz-adv-x="876" d="M135 0v1100q33 4 62 4v-1104h-62zM258 418v61q174 4 298 75t124 206q0 119 -108.5 200.5t-313.5 83.5v62q227 -2 355 -100.5t128 -245.5q0 -131 -88 -210t-192 -106l323 -426l-51 -32l-340 444q-74 -12 -135 -12z" />
<glyph unicode="&#xf774;" horiz-adv-x="1077" d="M102 1036v62h873v-62h-873zM508 0v975h61v-975h-61z" />
<glyph unicode="&#xf775;" horiz-adv-x="1101" d="M123 395v703h61v-703q0 -147 96.5 -245.5t239.5 -108.5v-61q-168 10 -282.5 125.5t-114.5 289.5zM582 -20v61q143 10 239.5 108.5t96.5 245.5v703h61v-703q0 -174 -114.5 -289.5t-282.5 -125.5z" />
<glyph unicode="&#xf776;" horiz-adv-x="1077" d="M102 1087l58 21l411 -1065l-32 -84zM571 211l347 897l57 -21l-371 -960z" />
<glyph unicode="&#xf777;" horiz-adv-x="1593" d="M102 1087l58 21l411 -1065l-32 -84zM571 211l160 414l33 -84l-160 -414zM618 1087l58 21l121 -313l121 313l57 -21l-146 -376l258 -668l-32 -84zM1087 211l347 897l57 -21l-371 -960z" />
<glyph unicode="&#xf778;" horiz-adv-x="1134" d="M102 18l881 1098l49 -37l-880 -1097zM102 1079l50 37l376 -469l-39 -49zM606 451l39 49l387 -482l-49 -36z" />
<glyph unicode="&#xf779;" horiz-adv-x="1132" d="M102 1077l45 39l447 -555v-561h-62v539zM602 647l383 473l45 -43l-389 -479z" />
<glyph unicode="&#xf77a;" horiz-adv-x="1093" d="M94 0l826 1098h79l-825 -1098h-80zM102 1036v62h740l-47 -62h-693zM252 0l47 61h692v-61h-739z" />
<glyph unicode="&#xf7a1;" d="M113 975v123h123v-123h-123zM143 0v762h62v-762h-62z" />
<glyph unicode="&#xf7bf;" horiz-adv-x="792" d="M100 244q0 92 43 148.5t129 103.5q111 61 111 151v115h61v-115q0 -123 -143 -205q-68 -39 -103.5 -83t-35.5 -115q0 -98 74.5 -155.5t171.5 -57.5q160 0 227 137l53 -29q-84 -170 -280 -170q-121 0 -214.5 74t-93.5 201zM352 975v123h123v-123h-123z" />
<glyph unicode="&#xf7e0;" horiz-adv-x="1052" d="M129 12l358 955l33 -86l-336 -895zM340 223l22 62h447l-289 768l33 88l424 -1129l-55 -26l-91 237h-491zM381 1468l37 50l309 -224l-37 -49z" />
<glyph unicode="&#xf7e1;" horiz-adv-x="1052" d="M129 12l358 955l33 -86l-336 -895zM340 223l22 62h447l-289 768l33 88l424 -1129l-55 -26l-91 237h-491zM393 1294l309 224l37 -50l-309 -223z" />
<glyph unicode="&#xf7e2;" horiz-adv-x="1052" d="M129 12l358 955l33 -86l-336 -895zM340 223l22 62h447l-289 768l33 88l424 -1129l-55 -26l-91 237h-491zM371 1282l182 236l184 -236l-49 -37l-135 170l-133 -170z" />
<glyph unicode="&#xf7e3;" horiz-adv-x="1052" d="M129 12l358 955l33 -86l-336 -895zM311 1354q51 96 144 96q59 0 116 -45q41 -31 78 -31q61 0 96 72l50 -37q-53 -96 -146 -96q-55 0 -114 43q-43 33 -80 33q-61 0 -95 -72zM340 223l22 62h447l-289 768l33 88l424 -1129l-55 -26l-91 237h-491z" />
<glyph unicode="&#xf7e4;" horiz-adv-x="1052" d="M129 12l358 955l33 -86l-336 -895zM340 223l22 62h447l-289 768l33 88l424 -1129l-55 -26l-91 237h-491zM365 1331v103h102v-103h-102zM641 1331v103h102v-103h-102z" />
<glyph unicode="&#xf7e5;" horiz-adv-x="1052" d="M129 12l358 955l33 -86l-336 -895zM340 223l22 62h447l-289 768l33 88l424 -1129l-55 -26l-91 237h-491zM416 1382.5q0 49.5 29.5 86t76.5 47.5v-66q-45 -20 -45 -68q0 -49 45 -69v-64q-47 10 -76.5 47t-29.5 86.5zM584 1249v64q45 20 45 69q0 47 -45 68v66 q45 -10 75.5 -47t30.5 -86.5t-30.5 -86.5t-75.5 -47z" />
<glyph unicode="&#xf7e6;" horiz-adv-x="1531" d="M102 16l711 1082h606v-62h-571l-463 -706h367v-62h-408l-188 -284zM813 0v868l61 93v-297h410v-62h-410v-541h545v-61h-606z" />
<glyph unicode="&#xf7e7;" horiz-adv-x="1030" d="M102 553q0 229 183.5 395t511.5 166q63 0 131 -6l-4 -61q-68 6 -127 6q-299 0 -466 -148.5t-167 -351.5t167 -350.5t466 -147.5q59 0 127 6l4 -61q-68 -6 -131 -6q-70 0 -148 10l-10 -37q74 -14 74 -84q0 -51 -37 -76.5t-88 -25.5q-35 0 -66 12l21 57q18 -8 47 -8 q61 0 61 41q0 20 -65 21h-27l29 110q-233 49 -359.5 200t-126.5 339z" />
<glyph unicode="&#xf7e8;" horiz-adv-x="1058" d="M135 0v1098h62v-1098h-62zM258 0v61h688v-61h-688zM258 602v62h553v-62h-553zM258 1036v62h688v-62h-688zM369 1468l37 50l309 -224l-37 -49z" />
<glyph unicode="&#xf7e9;" horiz-adv-x="1058" d="M135 0v1098h62v-1098h-62zM258 0v61h688v-61h-688zM258 602v62h553v-62h-553zM258 1036v62h688v-62h-688zM369 1294l309 224l37 -50l-309 -223z" />
<glyph unicode="&#xf7ea;" horiz-adv-x="1058" d="M135 0v1098h62v-1098h-62zM258 0v61h688v-61h-688zM258 602v62h553v-62h-553zM258 1036v62h688v-62h-688zM358 1282l183 236l184 -236l-49 -37l-135 170l-133 -170z" />
<glyph unicode="&#xf7eb;" horiz-adv-x="1058" d="M135 0v1098h62v-1098h-62zM258 0v61h688v-61h-688zM258 602v62h553v-62h-553zM258 1036v62h688v-62h-688zM352 1331v103h103v-103h-103zM629 1331v103h102v-103h-102z" />
<glyph unicode="&#xf7ec;" d="M2 1468l37 50l309 -224l-37 -49zM143 0v1098h62v-1098h-62z" />
<glyph unicode="&#xf7ed;" d="M33 1294l309 224l37 -50l-309 -223zM143 0v1098h62v-1098h-62z" />
<glyph unicode="&#xf7ee;" d="M-8 1282l182 236l184 -236l-49 -37l-135 170l-133 -170zM143 0v1098h62v-1098h-62z" />
<glyph unicode="&#xf7ef;" d="M-14 1331v103h102v-103h-102zM143 0v1098h62v-1098h-62zM262 1331v103h103v-103h-103z" />
<glyph unicode="&#xf7f1;" horiz-adv-x="1124" d="M135 0v950l62 -80v-870h-62zM135 1047v98l854 -1094v-98zM319 1354q51 96 144 96q59 0 117 -45q39 -31 77 -31q61 0 97 72l49 -37q-53 -96 -146 -96q-55 0 -114 43q-43 33 -80 33q-61 0 -94 -72zM928 227v871h61v-951z" />
<glyph unicode="&#xf7f2;" horiz-adv-x="1343" d="M102 549q0 227 157 391t382 176v-61q-201 -12 -339 -157.5t-138 -348.5t138 -349.5t339 -158.5v-59q-225 12 -382 176t-157 391zM500 1468l37 50l309 -224l-37 -49zM702 -18v59q201 12 339.5 158.5t138.5 349.5t-138.5 348t-339.5 158v61q225 -12 382 -176t157 -391 t-157 -391t-382 -176z" />
<glyph unicode="&#xf7f3;" horiz-adv-x="1343" d="M102 549q0 227 157 391t382 176v-61q-201 -12 -339 -157.5t-138 -348.5t138 -349.5t339 -158.5v-59q-225 12 -382 176t-157 391zM500 1294l309 224l37 -50l-309 -223zM702 -18v59q201 12 339.5 158.5t138.5 349.5t-138.5 348t-339.5 158v61q225 -12 382 -176t157 -391 t-157 -391t-382 -176z" />
<glyph unicode="&#xf7f4;" horiz-adv-x="1343" d="M102 549q0 227 157 391t382 176v-61q-201 -12 -339 -157.5t-138 -348.5t138 -349.5t339 -158.5v-59q-225 12 -382 176t-157 391zM489 1282l183 236l184 -236l-49 -37l-135 170l-133 -170zM702 -18v59q201 12 339.5 158.5t138.5 349.5t-138.5 348t-339.5 158v61 q225 -12 382 -176t157 -391t-157 -391t-382 -176z" />
<glyph unicode="&#xf7f5;" horiz-adv-x="1343" d="M102 549q0 227 157 391t382 176v-61q-201 -12 -339 -157.5t-138 -348.5t138 -349.5t339 -158.5v-59q-225 12 -382 176t-157 391zM430 1354q51 96 143 96q59 0 117 -45q39 -31 78 -31q61 0 96 72l49 -37q-53 -96 -145 -96q-55 0 -115 43q-43 33 -80 33q-61 0 -94 -72z M702 -18v59q201 12 339.5 158.5t138.5 349.5t-138.5 348t-339.5 158v61q225 -12 382 -176t157 -391t-157 -391t-382 -176z" />
<glyph unicode="&#xf7f6;" horiz-adv-x="1343" d="M102 549q0 227 157 391t382 176v-61q-201 -12 -339 -157.5t-138 -348.5t138 -349.5t339 -158.5v-59q-225 12 -382 176t-157 391zM483 1331v103h103v-103h-103zM702 -18v59q201 12 339.5 158.5t138.5 349.5t-138.5 348t-339.5 158v61q225 -12 382 -176t157 -391t-157 -391 t-382 -176zM760 1331v103h102v-103h-102z" />
<glyph unicode="&#xf7f8;" horiz-adv-x="1343" d="M102 23l146 145q-145 166 -146 381q0 227 157 391t382 176v-61q-201 -12 -339 -157.5t-138 -348.5q0 -195 127 -338l717 719q-131 117 -306 125v61q195 -8 347 -143l147 147l45 -45l-147 -147q147 -160 147 -379q0 -227 -156.5 -391t-382.5 -176v59q201 12 339.5 158.5 t138.5 349.5q0 188 -127 336l-717 -719q129 -113 305 -125v-59q-203 10 -348 141l-146 -146z" />
<glyph unicode="&#xf7f9;" horiz-adv-x="1101" d="M123 395v703h61v-703q0 -147 96.5 -245.5t239.5 -108.5v-61q-168 10 -282.5 125.5t-114.5 289.5zM379 1468l37 50l309 -224l-37 -49zM582 -20v61q143 10 239.5 108.5t96.5 245.5v703h61v-703q0 -174 -114.5 -289.5t-282.5 -125.5z" />
<glyph unicode="&#xf7fa;" horiz-adv-x="1101" d="M123 395v703h61v-703q0 -147 96.5 -245.5t239.5 -108.5v-61q-168 10 -282.5 125.5t-114.5 289.5zM379 1294l309 224l37 -50l-309 -223zM582 -20v61q143 10 239.5 108.5t96.5 245.5v703h61v-703q0 -174 -114.5 -289.5t-282.5 -125.5z" />
<glyph unicode="&#xf7fb;" horiz-adv-x="1101" d="M123 395v703h61v-703q0 -147 96.5 -245.5t239.5 -108.5v-61q-168 10 -282.5 125.5t-114.5 289.5zM369 1282l182 236l184 -236l-49 -37l-135 170l-133 -170zM582 -20v61q143 10 239.5 108.5t96.5 245.5v703h61v-703q0 -174 -114.5 -289.5t-282.5 -125.5z" />
<glyph unicode="&#xf7fc;" horiz-adv-x="1101" d="M123 395v703h61v-703q0 -147 96.5 -245.5t239.5 -108.5v-61q-168 10 -282.5 125.5t-114.5 289.5zM362 1331v103h103v-103h-103zM582 -20v61q143 10 239.5 108.5t96.5 245.5v703h61v-703q0 -174 -114.5 -289.5t-282.5 -125.5zM639 1331v103h102v-103h-102z" />
<glyph unicode="&#xf7fd;" horiz-adv-x="1132" d="M102 1077l45 39l447 -555v-561h-62v539zM391 1294l309 224l37 -50l-309 -223zM602 647l383 473l45 -43l-389 -479z" />
<glyph unicode="&#xf7fe;" horiz-adv-x="802" d="M135 0v1098h62v-1098h-62zM258 207v61h12q174 0 271.5 84t97.5 199t-97.5 199t-273.5 84h-10v61h10q205 0 318.5 -101.5t113.5 -242.5q0 -139 -113.5 -241.5t-316.5 -102.5h-12z" />
<glyph unicode="&#xf7ff;" horiz-adv-x="1132" d="M102 1077l45 39l447 -555v-561h-62v539zM375 1331v103h102v-103h-102zM602 647l383 473l45 -43l-389 -479zM651 1331v103h103v-103h-103z" />
<glyph horiz-adv-x="1060" d="M113 717q0 139 44 267t128 231.5t220 165t304 61.5q82 0 149 -6l-4 -62q-68 6 -145 6q-154 0 -277.5 -56t-199.5 -151.5t-117 -212t-41 -243.5t41 -244t117 -211t198.5 -150.5t276.5 -56.5q80 0 147 6l4 -61q-68 -6 -151 -6q-168 0 -303 61.5t-219 165t-128 230.5 t-44 266zM236 716.5q0 20.5 2 31.5h538v-62h-538q-2 10 -2 30.5z" />
<glyph horiz-adv-x="1030" d="M102 548.5q0 229.5 183.5 397.5t511.5 168q63 0 131 -6l-4 -61q-68 6 -127 6q-299 0 -466 -150.5t-167 -353.5t167 -352.5t466 -149.5q59 0 127 6l4 -61q-68 -6 -131 -6q-328 0 -511.5 166.5t-183.5 396zM227 548.5q0 20.5 2 31.5h539v-62h-539q-2 10 -2 30.5z" />
<glyph horiz-adv-x="1044" d="M106 778q0 154 114 240t282 92v-61q-150 -6 -242 -76t-92 -195q0 -51 27.5 -87t87 -57.5t106.5 -31.5t133 -22q41 -8 82 -13.5t82 -14.5t78 -20.5t68.5 -31t55 -43t37 -59.5t13.5 -79q0 -156 -110.5 -241.5t-284.5 -91.5v61q145 8 239.5 79t94.5 193q0 43 -24 77 t-60.5 52.5t-83.5 33t-95.5 21.5t-93.5 15q-49 10 -104.5 17.5t-110.5 26t-99 43t-72 69.5t-28 104zM117 215l57 27q84 -180 307 -195v-61q-268 12 -364 229zM563 1049v61q127 -6 227.5 -65.5t139.5 -167.5l-56 -25q-39 90 -122 140.5t-189 56.5z" />
<glyph horiz-adv-x="843" d="M102 436.5q0 149.5 99.5 265t273.5 156.5v189h62v-177q70 8 110 9q27 0 84 -5l-4 -61q-57 4 -80 4q-219 0 -351 -110.5t-132 -270.5t132 -270.5t351 -110.5q23 0 80 4l4 -61q-57 -4 -84 -4q-41 0 -110 8v-176h-62v186q-174 43 -273.5 159t-99.5 265.5z" />
<glyph horiz-adv-x="819" d="M143 1280v61h533v-61h-533z" />
<glyph horiz-adv-x="1150" d="M102 569q0 137 47.5 248t122 173.5t155.5 95t157 32.5q229 0 347 -158.5t118 -390.5v-30h-824q-4 31 0 61h760q-6 195 -107.5 326t-293.5 131q-68 0 -137.5 -29t-135 -85t-106.5 -154.5t-41 -219.5q0 -223 118.5 -375.5t321.5 -152.5q162 0 283 102l41 -45 q-137 -119 -324 -118q-231 0 -366.5 169.5t-135.5 419.5z" />
<glyph horiz-adv-x="1136" d="M43 1036v62h92v235q0 195 87 305.5t220 110.5q102 0 179 -69.5t98 -163.5h-64q-20 72 -77.5 122t-135.5 50q-106 0 -175.5 -94.5t-69.5 -260.5v-1933h-62v1636h-92zM258 1036v62h262v-62h-262zM573 1036v62h93v356h61v-1069q0 -160 87 -243t226 -83q29 0 47 2l9 -61 q-18 -2 -56 -2q-166 0 -270 98.5t-104 288.5v651h-93zM788 1036v62h263v-62h-263z" />
<glyph d="M-508 -461l43 47q133 -123 260 -123q123 0 209 78t117 195q23 80 22 160v1202h62v-1221q0 -203 -116 -340t-294 -137q-164 0 -303 139zM123 1333v101h102v-101h-102z" />
<glyph horiz-adv-x="1691" d="M123 0v705q0 184 100.5 291.5t245.5 119.5v-61q-119 -12 -202 -104.5t-83 -245.5v-705h-61zM530 1055v61q102 -8 188.5 -69.5t127.5 -165.5q41 104 127 165.5t188 69.5v-61q-119 -12 -201.5 -104.5t-82.5 -245.5v-705h-62v705q0 154 -83 246t-202 104zM1223 1055v61 q143 -12 244.5 -120.5t101.5 -290.5v-705h-62v705q0 154 -82.5 246t-201.5 104z" />
<glyph horiz-adv-x="1101" d="M123 0v702q0 172 114.5 288t282.5 126v-61q-143 -10 -239.5 -108.5t-96.5 -244.5v-702h-61zM582 1055v61q168 -10 282.5 -126t114.5 -288v-702h-61v702q0 145 -96.5 244t-239.5 109z" />
<glyph horiz-adv-x="622" d="M123 0v713q0 182 125 298.5t303 116.5v-61q-154 0 -260.5 -99.5t-106.5 -254.5v-713h-61z" />
<glyph horiz-adv-x="1740" d="M123 717q0 301 209 517t508 228v-61q-274 -12 -465 -210t-191 -474.5t190.5 -475t465.5 -210.5v-60q-299 12 -508 228.5t-209 517.5zM668 328v790h61v-790h-61zM791 614v62q123 8 193.5 63.5t70.5 127t-71 127t-193 63.5v61q158 -12 241.5 -83.5t83.5 -168.5 q0 -72 -52 -135t-144 -94l223 -291l-49 -37l-238 312q-30 -7 -65 -7zM901 -29v60q274 12 464.5 210.5t190.5 475t-190 474.5t-465 210v61q299 -12 508 -228t209 -517t-209 -517.5t-508 -228.5z" />
<glyph horiz-adv-x="991" d="M102 778h64q10 -86 79.5 -142t164.5 -56h172q119 0 207 -75t98 -188h-62q-10 86 -80.5 143.5t-162.5 57.5h-172q-119 0 -207.5 73.5t-100.5 186.5zM102 840q12 111 100.5 184.5t207.5 73.5h397v-62h-397q-94 0 -164 -55t-80 -141h-64zM184 0v61h398q92 0 161.5 54.5 t81.5 140.5h62q-14 -111 -101.5 -183.5t-203.5 -72.5h-398z" />
<glyph horiz-adv-x="927" d="M43 516v62h369v-62h-369zM68 61q61 14 110 80t49 164q0 39 -16 150h63q14 -90 15 -150q0 -92 -37 -162q14 2 31 2q86 0 194 -51q106 -47 170 -47q96 0 168 70l41 -45q-92 -86 -209 -86q-76 0 -194 51q-109 47 -170 47q-37 0 -107 -43q-59 -35 -98 -41zM166 784 q0 139 96 226.5t273 87.5v-62q-152 0 -230 -69.5t-78 -182.5q0 -68 13 -145h-62q-12 73 -12 145z" />
<glyph horiz-adv-x="925" d="M43 1036v62h92v354h62v-1067q0 -158 85 -256t236 -98q176 0 318 125l36 -50q-154 -137 -348 -137q-182 0 -285.5 118t-103.5 302v647h-92zM258 1036v62h260v-62h-260z" />
<glyph horiz-adv-x="1691" d="M123 393v705h61v-705q0 -156 83 -247t202 -103v-61q-143 12 -244.5 119.5t-101.5 291.5zM530 -18v61q119 12 202 103.5t83 246.5v705h62v-705q0 -156 82.5 -247t201.5 -103v-61q-102 8 -188 68.5t-127 166.5q-41 -106 -127.5 -166.5t-188.5 -68.5zM1223 -18v61 q119 12 201.5 103.5t82.5 246.5v705h62v-705q0 -184 -101.5 -291.5t-244.5 -119.5z" />
</font>
</defs>
</svg>
